*** Уважаемые пользователи нашего трекера! Мы рады видеть Вас на нашем обновленном сайте! ***

Навигация по Торрент раздачам

Фильмы

Сериалы

Док.Фильмы

Мультики

Музыка

Игры

Софт

Спорт

Аниме

Книги

Графика

Мобильные

Ночная смена (2018) WEB-DLRip-AVC p | iTunes

Reply to topic
 
Author Message

Славик ®

Gender: Male

Longevity: 1 year 9 months

Posts: 3868



Награды: 4 (Подробнее)

Активный релизер (10 релизов) (Количество: 1) Активный релизер (100 релизов) (Количество: 1) Активный релизер (150 релизов) (Количество: 1)

Post 14-Apr-2019 13:00

[Quote]

Информация о фильме
Название: Ночная смена
Год выпуска: 2018
Страна: Россия
Производство: Централ Партнершип
Жанр: Комедия
Режиссёр: Марюс Вайсберг
В ролях: Владимир Яглыч, Павел Деревянко, Ксения Теплова, Наталья Бардо, Игорь Жижикин, Валентина Мазунина, Елена Валюшкина, Сергей Глушко, Эмин Агаларов, Наталья Бочкарёва
Перевод: Не требуется | iTunes
Субтитры: Нет
Реклама: Отсутствует
Описание: Макс теряет работу на заводе и, чтобы прокормить семью, вынужден согласиться на неожиданное предложение бывшей одноклассницы - поработать стриптизером. Скрывая новую профессию от жены Ани, Макс попадает в массу удивительных и нелепых ситуаций и в итоге теряет доверие любимой женщины. Стремясь вернуть мир и гармонию в семью, он обращается за помощью к коллегам из стрип-клуба, что и вовсе приводит к веселому хаосу...

Качество: WEB-DLRip-AVC
Продолжительность: 01:31:55
Формат: MKV
Видео кодек: MPEG-4 AVC
Аудио кодек: AC3
Видео: 1024x576 (16:9), 25,000 fps, x264 ~1 888 kbps avg, 0.128 bit/pixel
Аудио: 48 kHz, AC3 Dolby Digital, 3/2 (L,C,R,l,r) + LFE ch, ~384.00 kbps avg | RUS (iTunes)
Дата премьеры (РФ): 21 июня 2018, «Централ Партнершип»
Дата премьеры (мир): 6 июля 2018

MediaInfo

Общее
Уникальный идентификатор : 263455282789160206082519967968828444195 (0xC633A44DDC6CAB305F7E435DC761CE23)
Полное имя : F:OlLanDGroupNochnaja.Smena.2018.WEB-DLRip(AVC).OlLanDGroup.mkv
Формат : Matroska
Версия формата : Version 4 / Version 2
Размер файла : 1,46 Гбайт
Продолжительность : 1 ч. 31 м.
Общий поток : 2270 Кбит/сек
Название фильма : Nochnaja.Smena.2018 #TorpedoUK#
Дата кодирования : UTC 2018-08-03 18:29:36
Программа кодирования : mkvmerge v25.0.0 ('Prog Noir') 64-bit
Библиотека кодирования : libebml v1.3.6 + libmatroska v1.4.9
Видео
Идентификатор : 1
Формат : AVC
Формат/Информация : Advanced Video Codec
Профиль формата : High@L4.1
Параметр CABAC формата : Да
Параметр ReFrames формата : 10 кадров
Идентификатор кодека : V_MPEG4/ISO/AVC
Продолжительность : 1 ч. 31 м.
Битрейт : 1888 Кбит/сек
Ширина : 1024 пикселя
Высота : 576 пикселей
Соотношение сторон : 16:9
Режим частоты кадров : Постоянный
Частота кадров : 25,000 кадров/сек
Цветовое пространство : YUV
Субдискретизация насыщенности : 4:2:0
Битовая глубина : 8 бит
Тип развёртки : Прогрессивная
Бит/(Пиксели*Кадры) : 0.128
Размер потока : 1,21 Гбайт (83%)
Библиотека кодирования : x264 core 146 r2538 121396c
Настройки программы : cabac=1 / ref=10 / deblock=1:-2:-3 / analyse=0x3:0x113 / me=umh / subme=11 / psy=1 / psy_rd=0.95:0.07 / mixed_ref=1 / me_range=48 / chroma_me=1 / trellis=2 / 8x8dct=1 / cqm=0 / deadzone=21,11 / fast_pskip=1 / chroma_qp_offset=-3 / threads=6 / lookahead_threads=1 / sliced_threads=0 / nr=0 / decimate=1 / interlaced=0 / bluray_compat=0 / constrained_intra=0 / bframes=10 / b_pyramid=2 / b_adapt=2 / b_bias=0 / direct=3 / weightb=1 / open_gop=0 / weightp=2 / keyint=250 / keyint_min=25 / scenecut=40 / intra_refresh=0 / rc_lookahead=40 / rc=2pass / mbtree=1 / bitrate=1888 / ratetol=1.0 / qcomp=0.60 / qpmin=0 / qpmax=69 / qpstep=4 / cplxblur=20.0 / qblur=0.5 / vbv_maxrate=50000 / vbv_bufsize=62500 / nal_hrd=none / filler=0 / ip_ratio=1.40 / aq=1:1.00
Default : Да
Forced : Нет
Аудио
Идентификатор : 2
Формат : AC-3
Формат/Информация : Audio Coding 3
Расширение режима : CM (complete main)
Параметр Endianness формата : Big
Идентификатор кодека : A_AC3
Продолжительность : 1 ч. 31 м.
Вид битрейта : Постоянный
Битрейт : 384 Кбит/сек
Каналы : 6 каналов
Расположение каналов : Front: L C R, Side: L R, LFE
Частота : 48,0 КГц
Частота кадров : 31,250 кадров/сек (1536 spf)
Битовая глубина : 16 бит
Метод сжатия : С потерями
Размер потока : 252 Мбайт (17%)
Заголовок : iTunes
Язык : Russian
Default : Да
Forced : Нет
Меню
00:00:00.000 : en:Глава 1
00:06:44.400 : en:Глава 2
00:14:25.360 : en:Глава 3
00:19:18.760 : en:Глава 4
00:25:01.200 : en:Глава 5
00:30:46.480 : en:Глава 6
00:36:09.960 : en:Глава 7
00:42:14.360 : en:Глава 8
00:47:15.200 : en:Глава 9
00:53:52.120 : en:Глава 10
00:59:51.200 : en:Глава 11
01:04:44.040 : en:Глава 12
01:10:35.760 : en:Глава 13
01:17:36.520 : en:Глава 14
01:22:50.840 : en:Глава 15

Скриншоты



[Profile] [PM]
Display posts:    
Reply to topic

Current time is: 25-Apr 00:09

All times are UTC ± 0



You cannot post new topics in this forum
You cannot reply to topics in this forum
You cannot edit your posts in this forum
You cannot delete your posts in this forum
You cannot vote in polls in this forum
You cannot attach files in this forum
You cannot download files in this forum