*** Уважаемые пользователи нашего трекера! Мы рады видеть Вас на нашем обновленном сайте! ***

Навигация по Торрент раздачам

Фильмы

Сериалы

Док.Фильмы

Мультики

Музыка

Игры

Софт

Спорт

Аниме

Книги

Графика

Мобильные

Лови момент (2019) WEB-DL 1080p | iTunes

Reply to topic
 
Author Message

Славик ®

Gender: Male

Longevity: 1 year 9 months

Posts: 3868



Награды: 4 (Подробнее)

Активный релизер (10 релизов) (Количество: 1) Активный релизер (100 релизов) (Количество: 1) Активный релизер (150 релизов) (Количество: 1)

Post 10-Apr-2019 06:14

[Quote]

Информация о фильме
Название: Лови момент
Год выпуска: 2019
Жанр: Комедия
Режиссер: Антонина Руже
В ролях: Юлия Топольницкая, Алексей Кортнев, Юрий Быков, Валерия Федорович, Юлия Сулес, Михаил Тарабукин, Ольга Кузьмина, Ингрид Олеринская, Валерия Дергилева, Алексей Весёлкин
О фильме: Главная героиня - милая амбициозная девушка Рита из провинциального городка на черноморском побережье. Она решает вырваться из рутины ведения местных свадеб и утренников и приезжает покорять столицу, пытаясь поступить в театральное училище. Ее ждет много сложных испытаний, которые порой превращаются в очень комичные истории.

Выпущено: Россия, РВВ Фильм, Новые телеканалы
Продолжительность: 01:16:23
Язык: Русский | iTunes
Файл
Качество: WEB-DL 1080p
Контейнер: MKV
Видео: MPEG-4 AVC, ~ 4467 Кбит/с, 1920x806
Аудио: Русский: AC3, 6 ch, 384 Кбит/с
Субтитры: Нет

Скриншоты


MediaInfo

General
Unique ID : 232158208224435039636735612832623623178 (0xAEA80B64B5ED86068FEADD85A68FFC0A)
Complete name : Seize.the.moment.2019.WEB-DL.1080p.ELEKTRI4KA.UNIONGANG.mkv
Format : Matroska
Format version : Version 2
File size : 2.64 GiB
Duration : 1 h 16 min
Overall bit rate : 4 949 kb/s
Movie name : Seize.the.moment.2019.WEB-DL.1080p.ELEKTRI4KA.UNIONGANG
Encoded date : UTC 2019-04-08 20:34:48
Writing application : mkvmerge v7.8.0 ('River Man') 32bit built on Apr 3 2015 12:11:22
Writing library : libebml v1.3.1 + libmatroska v1.4.2
Video
ID : 2
Format : AVC
Format/Info : Advanced Video Codec
Format profile : High@L4
Format settings, CABAC : Yes
Format settings, RefFrames : 5 frames
Codec ID : V_MPEG4/ISO/AVC
Duration : 1 h 16 min
Bit rate : 4 467 kb/s
Width : 1 920 pixels
Height : 806 pixels
Display aspect ratio : 2.40:1
Frame rate mode : Constant
Frame rate : 24.000 FPS
Color space : YUV
Chroma subsampling : 4:2:0
Bit depth : 8 bits
Scan type : Progressive
Bits/(Pixel*Frame) : 0.120
Stream size : 2.38 GiB (90%)
Language : English
Default : Yes
Forced : No
Color range : Limited
Color primaries : BT.709
Transfer characteristics : BT.709
Matrix coefficients : BT.709
Audio
ID : 1
Format : AC-3
Format/Info : Audio Coding 3
Format settings, Endianness : Big
Codec ID : A_AC3
Duration : 1 h 16 min
Bit rate mode : Constant
Bit rate : 384 kb/s
Channel(s) : 6 channels
Channel positions : Front: L C R, Side: L R, LFE
Sampling rate : 48.0 kHz
Frame rate : 31.250 FPS (1536 SPF)
Bit depth : 16 bits
Compression mode : Lossy
Stream size : 210 MiB (8%)
Language : Russian
Service kind : Complete Main
Default : Yes
Forced : No
Menu
00:00:00.000 : en:Глава 1
00:06:26.458 : en:Глава 2
00:14:17.333 : en:Глава 3
00:20:51.833 : en:Глава 4
00:26:40.541 : en:Глава 5
00:32:50.416 : en:Глава 6
00:38:28.666 : en:Глава 7
00:43:38.291 : en:Глава 8
00:48:42.124 : en:Глава 9
00:53:00.040 : en:Глава 10
00:58:05.248 : en:Глава 11
01:04:55.289 : en:Глава 12
[Profile] [PM]
Display posts:    
Reply to topic

Current time is: 25-Apr 00:10

All times are UTC ± 0



You cannot post new topics in this forum
You cannot reply to topics in this forum
You cannot edit your posts in this forum
You cannot delete your posts in this forum
You cannot vote in polls in this forum
You cannot attach files in this forum
You cannot download files in this forum