*** Уважаемые пользователи нашего трекера! Мы рады видеть Вас на нашем обновленном сайте! ***

Навигация по Торрент раздачам

Фильмы

Сериалы

Док.Фильмы

Мультики

Музыка

Игры

Софт

Спорт

Аниме

Книги

Графика

Мобильные

Стекло / Glass (2019) UHD BDRemux 2160p | 4K | HDR | HDRezka Studio

Reply to topic
 
Author Message

Славик ®

Gender: Male

Longevity: 1 year 9 months

Posts: 3868



Награды: 4 (Подробнее)

Активный релизер (10 релизов) (Количество: 1) Активный релизер (100 релизов) (Количество: 1) Активный релизер (150 релизов) (Количество: 1)

Post 09-Apr-2019 10:27

[Quote]

Информация о фильме
Название: Стекло
Оригинальное название: Glass
Год выхода: 2019
Жанр: Фантастика, триллер, драма, детектив
Режиссер: М. Найт Шьямалан
В ролях: Джеймс МакЭвой, Брюс Уиллис, Сэмюэл Л. Джексон, Сара Полсон, Аня Тейлор-Джой, Спенсер Трит Кларк, Чарлэйн Вудард, Люк Кирби, Адам Дэвид Томпсон, М. Найт Шьямалан, Шеннон Дестини Райан, Диана Сильверс, Нина Уиснер, Серж Диденко, Джейн Парк Смит, Кайли Зион, Расселл Познер, Кимберли С. Фербенкс

О фильме: Похититель с множественным расстройством личности и террорист-инвалид Мистер Стекло выходят на своих давних противников - травмированную девочку-подростка Кейси и стареющего супергероя Дэвида Данна.
Страна: США
Студия: Walt Disney Pictures, Universal Pictures, Blinding Edge Pictures
Продолжительность: 02:09:01
Перевод: Профессиональный многоголосый | HDRezka Studio
Качество: BDRemux 2160p
Видео: MPEG-H HEVC HDR Video, 3840x2160, 65700 Kbit/s, 23.976 fps
Звук:
Аудио #01: 48 kHz, AC3, 5.1, 448 Kbps | HDRezka Studio | RUS |
Аудио #02: 48 kHz, TrueHD, 7.1, 4109 Kbps | Оригинал | ENG |
Аудио #03: 48 kHz, AC3, 5.1, 448 Kbps | Оригинал | ENG |
Субтитры: Английские

Скриншоты

MI

General
Unique ID : 283818056067431791872363813300384624133 (0xD5855E8A09EBC8521961247EB9FCEE05)
Complete name : D:Video111Glass.2019.BDREMUX.2160p.HDR.seleZen.mkv
Format : Matroska
Format version : Version 4
File size : 63.8 GiB
Duration : 2 h 9 min
Overall bit rate mode : Variable
Overall bit rate : 70.8 Mb/s
Movie name : Glass 2019 4K from селезень
Encoded date : UTC 2019-04-09 05:16:35
Writing application : mkvmerge v32.0.0 ('Astral Progressions') 64-bit
Writing library : libebml v1.3.7 + libmatroska v1.5.0
Video
ID : 1
Format : HEVC
Format/Info : High Efficiency Video Coding
Format profile : Main 10@L5.1@High
HDR format : SMPTE ST 2086, HDR10 compatible
Codec ID : V_MPEGH/ISO/HEVC
Duration : 2 h 9 min
Bit rate : 65.7 Mb/s
Width : 3 840 pixels
Height : 2 160 pixels
Display aspect ratio : 16:9
Frame rate mode : Constant
Frame rate : 23.976 (24000/1001) FPS
Color space : YUV
Chroma subsampling : 4:2:0 (Type 2)
Bit depth : 10 bits
Bits/(Pixel*Frame) : 0.330
Stream size : 59.2 GiB (93%)
Language : English
Default : Yes
Forced : No
Color range : Limited
Color primaries : BT.2020
Transfer characteristics : PQ
Matrix coefficients : BT.2020 non-constant
Mastering display color pri : Display P3
Mastering display luminance : min: 0.0050 cd/m2, max: 1000 cd/m2
Maximum Content Light Level : 457 cd/m2
Maximum Frame-Average Light : 182 cd/m2
Audio #1
ID : 2
Format : AC-3
Format/Info : Audio Coding 3
Commercial name : Dolby Digital
Codec ID : A_AC3
Duration : 2 h 9 min
Bit rate mode : Constant
Bit rate : 448 kb/s
Channel(s) : 6 channels
Channel layout : L R C LFE Ls Rs
Sampling rate : 48.0 kHz
Frame rate : 31.250 FPS (1536 SPF)
Bit depth : 16 bits
Compression mode : Lossy
Stream size : 413 MiB (1%)
Title : MVO [HDRezka studio]
Language : Russian
Service kind : Complete Main
Default : Yes
Forced : Yes
Audio #2
ID : 3
Format : MLP FBA 16-ch
Format/Info : Meridian Lossless Packing FBA with 16-channel presentation
Commercial name : Dolby TrueHD with Dolby Atmos
Codec ID : A_TRUEHD
Duration : 2 h 9 min
Bit rate mode : Variable
Bit rate : 4 109 kb/s
Maximum bit rate : 7 326 kb/s
Channel(s) : 8 channels
Channel layout : L R C LFE Ls Rs Lb Rb
Sampling rate : 48.0 kHz
Frame rate : 1 200.000 FPS (40 SPF)
Compression mode : Lossless
Stream size : 3.70 GiB (6%)
Title : Original
Language : English
Default : No
Forced : No
Number of dynamic objects : 11
Bed channel count : 1 channel
Bed channel configuration : LFE
Audio #3
ID : 4
Format : AC-3
Format/Info : Audio Coding 3
Commercial name : Dolby Digital
Codec ID : A_AC3
Duration : 2 h 9 min
Bit rate mode : Constant
Bit rate : 448 kb/s
Channel(s) : 6 channels
Channel layout : L R C LFE Ls Rs
Sampling rate : 48.0 kHz
Frame rate : 31.250 FPS (1536 SPF)
Bit depth : 16 bits
Compression mode : Lossy
Stream size : 413 MiB (1%)
Language : English
Service kind : Complete Main
Default : No
Forced : No
Text #1
ID : 5
Format : UTF-8
Codec ID : S_TEXT/UTF8
Codec ID/Info : UTF-8 Plain Text
Duration : 2 h 1 min
Bit rate : 43 b/s
Count of elements : 1201
Stream size : 38.8 KiB (0%)
Title : Full
Language : English
Default : No
Forced : No
Text #2
ID : 6
Format : UTF-8
Codec ID : S_TEXT/UTF8
Codec ID/Info : UTF-8 Plain Text
Duration : 2 h 2 min
Bit rate : 52 b/s
Count of elements : 1565
Stream size : 46.8 KiB (0%)
Title : SDH
Language : English
Default : No
Forced : No
Menu
00:00:00.000 : en:Chapter 01
00:04:08.457 : en:Chapter 02
00:09:36.367 : en:Chapter 03
00:14:30.078 : en:Chapter 04
00:19:49.897 : en:Chapter 05
00:24:41.063 : en:Chapter 06
00:29:45.826 : en:Chapter 07
00:35:00.598 : en:Chapter 08
00:39:07.595 : en:Chapter 09
00:47:28.220 : en:Chapter 10
00:57:16.224 : en:Chapter 11
01:02:55.271 : en:Chapter 12
01:09:26.829 : en:Chapter 13
01:14:30.299 : en:Chapter 14
01:21:43.774 : en:Chapter 15
01:30:10.530 : en:Chapter 16
01:38:15.515 : en:Chapter 17
01:44:08.742 : en:Chapter 18
01:54:07.215 : en:Chapter 19
02:03:00.290 : en:Chapter 20
[Profile] [PM]
Display posts:    
Reply to topic

Current time is: 25-Apr 00:30

All times are UTC ± 0



You cannot post new topics in this forum
You cannot reply to topics in this forum
You cannot edit your posts in this forum
You cannot delete your posts in this forum
You cannot vote in polls in this forum
You cannot attach files in this forum
You cannot download files in this forum