*** Уважаемые пользователи нашего трекера! Мы рады видеть Вас на нашем обновленном сайте! ***

Навигация по Торрент раздачам

Фильмы

Сериалы

Док.Фильмы

Мультики

Музыка

Игры

Софт

Спорт

Аниме

Книги

Графика

Мобильные

Как приручить дракона 3 / How to Train Your Dragon: The Hidden World (2019) BDRip 1080p

Reply to topic
 
Author Message

Славик ®

Gender: Male

Longevity: 1 year 9 months

Posts: 3868



Награды: 4 (Подробнее)

Активный релизер (10 релизов) (Количество: 1) Активный релизер (100 релизов) (Количество: 1) Активный релизер (150 релизов) (Количество: 1)

Post 09-Apr-2019 06:14

[Quote]

Информация о фильме
Название: Как приручить дракона 3
Оригинальное название: How to Train Your Dragon: The Hidden World
Год выхода: 2019
Жанр: Мультфильм, фэнтези, боевик, комедия, приключения, семейный, полнометражный
Режиссер: Дин ДеБлуа
В ролях: Кейт Бланшетт, Джерард Батлер, Джона Хилл, Кит Харингтон, Кристен Уиг, Джей Барушель, Кристофер Минц-Плассе, Америка Феррера, Оулавюр Дарри Оулафссон, Ф. Мюррэй Абрахам, Крэйг Фергюсон, Джастин Руппл

О фильме: Когда-то викинги жили в гармонии с драконами. В те времена они делили радость, горе… и последние штаны. Казалось, что так будет всегда, но появление загадочной Дневной Фурии изменило жизнь острова. И теперь Иккинг и Беззубик столкнутся с безжалостным охотником на драконов, жаждущим уничтожить все, что им дорого.
Страна: США
Студия: DreamWorks Animation, Mad Hatter Entertainment
Продолжительность: 01:44:06
Перевод(ы):
#1: Дублированный | Line

#2: Профессиональный многоголосый | HDRezka Studio
Качество: BDRip 1080p
Видео: MPEG-4 AVC, 1920x816, 10.1 Mbit/s, 23.976 fps
Звук:
Аудио #01: 48 kHz, AC3, 5.1, 384 Kbps | Line | RUS |
Аудио #02: 48 kHz, AC3, 2.0, 192 Kbps | HDRezka Studio | RUS |
Аудио #03: 48 kHz, AC3, 5.1, 384 Kbps | Оригинал | ENG |
Субтитры: Английские
*Дорожка №1 получена путём совмещения английской версии с line-дубляжом. Отдельная благодарность WetY за проделанную работу.

Скриншоты

MI

General
Unique ID : 77479340655219097536389929222283925295 (0x3A49FA6CE21CD56DD8884470F4C7172F)
Complete name : D:Video111How.to.Train.Your.Dragon.The.Hidden.World.2019.BDRip.1080p.seleZen.mkv
Format : Matroska
Format version : Version 4
File size : 8.10 GiB
Duration : 1 h 44 min
Overall bit rate : 11.1 Mb/s
Movie name : How to Train Your Dragon The Hidden World 2019 from селезень
Encoded date : UTC 2019-04-08 14:08:34
Writing application : mkvmerge v32.0.0 ('Astral Progressions') 64-bit
Writing library : libebml v1.3.7 + libmatroska v1.5.0
Video
ID : 1
Format : AVC
Format/Info : Advanced Video Codec
Format profile : High@L4.1
Format settings : CABAC / 5 Ref Frames
Format settings, CABAC : Yes
Format settings, ReFrames : 5 frames
Codec ID : V_MPEG4/ISO/AVC
Duration : 1 h 44 min
Bit rate : 10.1 Mb/s
Width : 1 920 pixels
Height : 816 pixels
Display aspect ratio : 2.35:1
Frame rate mode : Constant
Frame rate : 23.976 (24000/1001) FPS
Color space : YUV
Chroma subsampling : 4:2:0
Bit depth : 8 bits
Scan type : Progressive
Bits/(Pixel*Frame) : 0.270
Stream size : 7.36 GiB (91%)
Title : seleZen
Writing library : x264 core 148 r2705kMod 3f5ed56
Encoding settings : cabac=1 / ref=5 / deblock=1:-2:-2 / analyse=0x3:0x133 / me=umh / subme=10 / psy=1 / fade_compensate=0.00 / psy_rd=1.20:0.07 / mixed_ref=1 / me_range=24 / chroma_me=1 / trellis=2 / 8x8dct=1 / cqm=0 / deadzone=21,11 / fast_pskip=0 / chroma_qp_offset=-3 / threads=12 / lookahead_threads=2 / sliced_threads=0 / nr=0 / decimate=0 / interlaced=0 / bluray_compat=0 / constrained_intra=0 / fgo=0 / bframes=8 / b_pyramid=2 / b_adapt=2 / b_bias=0 / direct=3 / weightb=1 / open_gop=0 / weightp=2 / keyint=240 / keyint_min=23 / scenecut=40 / intra_refresh=0 / rc_lookahead=50 / rc=2pass / mbtree=0 / bitrate=10125 / ratetol=1.0 / qcomp=0.60 / qpmin=0 / qpmax=51 / qpstep=4 / cplxblur=20.0 / qblur=0.5 / vbv_maxrate=50000 / vbv_bufsize=62500 / nal_hrd=none / filler=0 / ip_ratio=1.40 / pb_ratio=1.30 / aq=3:0.80
Language : English
Default : Yes
Forced : No
Audio #1
ID : 2
Format : AC-3
Format/Info : Audio Coding 3
Commercial name : Dolby Digital
Codec ID : A_AC3
Duration : 1 h 44 min
Bit rate mode : Constant
Bit rate : 384 kb/s
Channel(s) : 6 channels
Channel layout : L R C LFE Ls Rs
Sampling rate : 48.0 kHz
Frame rate : 31.250 FPS (1536 SPF)
Bit depth : 16 bits
Compression mode : Lossy
Stream size : 286 MiB (3%)
Title : Dub [Line]
Language : Russian
Service kind : Complete Main
Default : Yes
Forced : Yes
Audio #2
ID : 3
Format : AC-3
Format/Info : Audio Coding 3
Commercial name : Dolby Digital
Codec ID : A_AC3
Duration : 1 h 44 min
Bit rate mode : Constant
Bit rate : 192 kb/s
Channel(s) : 2 channels
Channel layout : L R
Sampling rate : 48.0 kHz
Frame rate : 31.250 FPS (1536 SPF)
Bit depth : 16 bits
Compression mode : Lossy
Stream size : 143 MiB (2%)
Title : MVO [HDRezka Studio]
Language : Russian
Service kind : Complete Main
Default : No
Forced : No
Audio #3
ID : 4
Format : AC-3
Format/Info : Audio Coding 3
Commercial name : Dolby Digital
Codec ID : A_AC3
Duration : 1 h 44 min
Bit rate mode : Constant
Bit rate : 448 kb/s
Channel(s) : 6 channels
Channel layout : L R C LFE Ls Rs
Sampling rate : 48.0 kHz
Frame rate : 31.250 FPS (1536 SPF)
Bit depth : 16 bits
Compression mode : Lossy
Stream size : 334 MiB (4%)
Title : Original
Language : English
Service kind : Complete Main
Default : No
Forced : No
Text
ID : 5
Format : UTF-8
Codec ID : S_TEXT/UTF8
Codec ID/Info : UTF-8 Plain Text
Duration : 1 h 43 min
Bit rate : 62 b/s
Count of elements : 1792
Stream size : 48.0 KiB (0%)
Title : SDH
Language : English
Default : No
Forced : No
Menu
00:00:00.000 : en:Chapter 1
00:05:13.521 : en:Chapter 2
00:10:26.834 : en:Chapter 3
00:14:52.224 : en:Chapter 4
00:20:33.065 : en:Chapter 5
00:24:38.685 : en:Chapter 6
00:28:40.885 : en:Chapter 7
00:31:10.118 : en:Chapter 8
00:37:35.127 : en:Chapter 9
00:44:38.550 : en:Chapter 10
00:47:53.579 : en:Chapter 11
00:53:11.021 : en:Chapter 12
00:57:36.286 : en:Chapter 13
01:01:25.056 : en:Chapter 14
01:08:55.923 : en:Chapter 15
01:14:17.703 : en:Chapter 16
01:19:31.141 : en:Chapter 17
01:23:23.289 : en:Chapter 18
01:28:24.716 : en:Chapter 19
01:33:53.377 : en:Chapter 20
БЕЗ РЕКЛАМЫ.
[Profile] [PM]
Display posts:    
Reply to topic

Current time is: 25-Apr 00:08

All times are UTC ± 0



You cannot post new topics in this forum
You cannot reply to topics in this forum
You cannot edit your posts in this forum
You cannot delete your posts in this forum
You cannot vote in polls in this forum
You cannot attach files in this forum
You cannot download files in this forum