*** Уважаемые пользователи нашего трекера! Мы рады видеть Вас на нашем обновленном сайте! ***

Навигация по Торрент раздачам

Фильмы

Сериалы

Док.Фильмы

Мультики

Музыка

Игры

Софт

Спорт

Аниме

Книги

Графика

Мобильные

Начни сначала / Second Act (2018) WEB-DL 1080p | HDRezka Studio

Reply to topic
DL-List and Torrent activity
Size:  3.79 GB   |    Registered:  2 months 5 days   |    Completed:  0 times

Seeder not seen: Never

 
   
 
 
 
Author Message

Славик ®

Gender: Male

Longevity: 1 year 10 months

Posts: 4075



Награды: 4 (Подробнее)

Активный релизер (10 релизов) (Количество: 1) Активный релизер (100 релизов) (Количество: 1) Активный релизер (150 релизов) (Количество: 1)

Post 14-Mar-2019 05:24

[Quote]

Информация о фильме
Название: Начни сначала
Оригинальное название:Second Act
Год выпуска: 2018
Страна: США
Производство: STX Entertainment
Жанр: Мелодрама, комедия-Режиссёр: Питер Сигал
В ролях: Дженнифер Лопес, Ванесса Энн Хадженс, Леа Ремини, Трит Уильямс, Майло Вентимилья, Аннали Эшфорд, Шарлин Йи, Алан Айзенберг, Фредди Строма, Дэйв Фоли-Перевод: Профессиональный многоголосый | [HDRezka Studio]
Субтитры: Английские
Реклама: Отсутствует
Описание: Когда Майя уже перестала надеяться, что ее мечты осуществятся, она случайно получает работу в большой корпорации. Теперь у нее есть шанс доказать снобам с Мэдисон Авеню, что врожденный талант и блестящий креатив так же важны, как и диплом престижного университета. И не имеет значения, что у тебя за спиной, - ведь никогда не поздно начать сначала!
-Качество: WEB-DL 1080p | |
Продолжительность: 01:43:46
Формат: MKV
Видео кодек: MPEG-4 AVC
Аудио кодек: AC3
Видео: 1920x1080 (16:9), 24,000 fps, x264 ~4 420 kbps avg, 0.089 bit/pixel
Аудио #1: 48 kHz, AC3 Dolby Digital, 2 (L,R) ch, ~192.00 kbps avg | RUS (HDRezka Studio)
Аудио #2: 48 kHz, E-AC3 Dolby Digital Plus, 3/2 (L,C,R,l,r) + LFE ch, ~640.00 kbps avg | ENG-Дата премьеры (мир): 6 декабря 2018
Дата премьеры (РФ): 10 января 2019, «MEGOGO Distribution»

MediaInfo

Общее
Уникальный идентификатор : 27698246466803451975226415062944971523 (0x14D67CFC7E4F36C42008386A635DFB03)
Полное имя : F:OlLanDGroupSecond.Act.2018.WEB-DL(1080p).OlLanDGroup.mkv
Формат : Matroska
Версия формата : Version 4 / Version 2
Размер файла : 3,79 Гбайт
Продолжительность : 1 ч. 43 м.
Режим общего битрейта : Переменный
Общий поток : 5228 Кбит/сек
Название фильма : Second.Act.2018 #TorpedoUK#
Дата кодирования : UTC 2019-03-11 02:48:44
Программа кодирования : mkvmerge v29.0.0 ('Like It Or Not') 64-bit
Библиотека кодирования : libebml v1.3.6 + libmatroska v1.4.9
Видео
Идентификатор : 1
Формат : AVC
Формат/Информация : Advanced Video Codec
Профиль формата : Main@L4
Параметр CABAC формата : Да
Параметр ReFrames формата : 3 кадра
Идентификатор кодека : V_MPEG4/ISO/AVC
Продолжительность : 1 ч. 43 м.
Вид битрейта : Переменный
Битрейт : 4420 Кбит/сек
Максимальный битрейт : 6630 Кбит/сек
Ширина : 1920 пикселей
Высота : 1080 пикселей
Соотношение сторон : 16:9
Режим частоты кадров : Постоянный
Частота кадров : 24,000 кадра/сек
Цветовое пространство : YUV
Субдискретизация насыщенности : 4:2:0
Битовая глубина : 8 бит
Тип развёртки : Прогрессивная
Бит/(Пиксели*Кадры) : 0.089
Размер потока : 3,18 Гбайт (84%)
Библиотека кодирования : x264 core 148 r2715 7e75228
Настройки программы : cabac=1 / ref=3 / deblock=1:0:0 / analyse=0x1:0x111 / me=umh / subme=10 / psy=1 / psy_rd=1.00:0.00 / mixed_ref=1 / me_range=24 / chroma_me=1 / trellis=2 / 8x8dct=0 / cqm=0 / deadzone=21,11 / fast_pskip=1 / chroma_qp_offset=-2 / threads=6 / lookahead_threads=1 / sliced_threads=0 / nr=0 / decimate=1 / interlaced=0 / bluray_compat=0 / stitchable=1 / constrained_intra=0 / bframes=2 / b_pyramid=0 / b_adapt=2 / b_bias=0 / direct=3 / weightb=1 / open_gop=0 / weightp=2 / keyint=48 / keyint_min=25 / scenecut=0 / intra_refresh=0 / rc_lookahead=48 / rc=2pass / mbtree=1 / bitrate=4420 / ratetol=1.0 / qcomp=0.50 / qpmin=6 / qpmax=51 / qpstep=4 / cplxblur=20.0 / qblur=0.5 / vbv_maxrate=6630 / vbv_bufsize=8840 / nal_hrd=vbr / filler=0 / ip_ratio=1.40 / aq=1:1.00
Default : Да
Forced : Нет
Аудио #1
Идентификатор : 2
Формат : AC-3
Формат/Информация : Audio Coding 3
Расширение режима : CM (complete main)
Параметр Endianness формата : Big
Идентификатор кодека : A_AC3
Продолжительность : 1 ч. 43 м.
Вид битрейта : Постоянный
Битрейт : 192 Кбит/сек
Каналы : 2 канала
Расположение каналов : Front: L R
Частота : 48,0 КГц
Частота кадров : 31,250 кадров/сек (1536 spf)
Битовая глубина : 16 бит
Метод сжатия : С потерями
Размер потока : 143 Мбайт (4%)
Заголовок : MVO [HDRezka Studio]
Язык : Russian
Default : Да
Forced : Нет
Аудио #2
Идентификатор : 3
Формат : E-AC-3
Формат/Информация : Enhanced Audio Coding 3
Параметр Endianness формата : Big
Идентификатор кодека : A_EAC3
Продолжительность : 1 ч. 43 м.
Вид битрейта : Постоянный
Битрейт : 640 Кбит/сек
Каналы : 6 каналов
Расположение каналов : Front: L C R, Side: L R, LFE
Частота : 48,0 КГц
Частота кадров : 187,500 кадров/сек (256 spf)
Метод сжатия : С потерями
Размер потока : 475 Мбайт (12%)
Заголовок : English
Язык : English
Default : Нет
Forced : Нет
Текст #1
Идентификатор : 4
Формат : UTF-8
Идентификатор кодека : S_TEXT/UTF8
Идентификатор кодека/Информация : UTF-8 Plain Text
Продолжительность : 1 м. 25 с.
Битрейт : 37 бит/сек
Count of elements : 13
Размер потока : 396 байт (0%)
Заголовок : Forced
Язык : English
Default : Нет
Forced : Нет
Текст #2
Идентификатор : 5
Формат : UTF-8
Идентификатор кодека : S_TEXT/UTF8
Идентификатор кодека/Информация : UTF-8 Plain Text
Продолжительность : 1 ч. 43 м.
Битрейт : 90 бит/сек
Count of elements : 2084
Размер потока : 68,3 Кбайт (0%)
Заголовок : SDH
Язык : English
Default : Нет
Forced : Нет

Скриншоты



[rubit-tracker.ru].t32872.torrent 
Torrent: Registered [ 2019-03-14 05:24 ] · 85CE4D4FD435A6175F6012F54A03C7C4609EDB9F Смотреть онлайн

Download .torrent

Download

20 KB

Status: * not checked
Completed: 0 times
Size: 3.79 GB
Поделиться:
terms.php
Похожие темы
[Profile] [PM]
Display posts:    
Reply to topic

Current time is: 19-May 16:45

All times are UTC ± 0



You cannot post new topics in this forum
You cannot reply to topics in this forum
You cannot edit your posts in this forum
You cannot delete your posts in this forum
You cannot vote in polls in this forum
You cannot attach files in this forum
You can download files in this forum