*** Уважаемые пользователи нашего трекера! Мы рады видеть Вас на нашем обновленном сайте! ***

Навигация по Торрент раздачам

Фильмы

Сериалы

Док.Фильмы

Мультики

Музыка

Игры

Софт

Спорт

Аниме

Книги

Графика

Мобильные

Отрыв (2018) WEB-DL 1080p | iTunes

Ответить на тему
Статистика раздачи
Размер:  2,85 GB   |    Зарегистрирован:  11 дней   |    Скачан:  0 раз

Полного источника не было: Никогда

 
   
 
 
 
Автор Сообщение

admin ®

Пол: Мужской

Стаж: 1 год 10 месяцев

Сообщений: 4254



Награды: 3 (Подробнее)

Авторитетный релизер (Количество: 1) Меценат (Количество: 1) Помощь трекеру (Количество: 1)

Создавать темы 12-Мар-2019 19:00

[Цитировать]

Информация о фильме
Название: Отрыв
Год выпуска: 2018
Жанр: Триллер
Режиссёр: Тигран Саакян
В ролях: Ирина Антоненко, Андрей Назимов, Денис Косяков, Ингрид Олеринская, Михаил Филиппов, Сергей Тодоров, Владимир Гусев, Елена Ветрова, Виктория Пятакина, Ангелина Пиковская
Описание: Компания друзей поднимается в горы, чтобы незабываемо встретить новогоднюю ночь на вершине горы. Ребята уже предвкушают, как под бой курантов и взрывы салютов они весело съедут вниз. Но приключение оборачивается настоящим кошмаром, когда в самый разгар праздника хлипкий вагончик, привёзший их ввысь, застревает над пропастью.

Страна: Россия
Студия: Кинокомпания CTB
Продолжительность: 01:21:32
Перевод: Не требуется | iTunes
Файл
Качество: WEB-DL 1080p
Контейнер: MKV
Видео: MPEG4 AVC Video, H264, 1920x772, 25 fps, 4522 kbps
Аудио: Russian: AC3, 6 ch, 384 kbps, 16 bits, 48.0 KHz
Субтитры: Нет

Скриншоты


MediaInfo

General
Unique ID : 201458716891454851737730118576860587048 (0x978F899C58B49B8CB6407AF824746428)
Complete name : D:Отрыв 2018 WEB-DL 1080p.mkv
Format : Matroska
Format version : Version 4 / Version 2
File size : 2.85 GiB
Duration : 1 h 21 min
Overall bit rate : 5 006 kb/s
Encoded date : UTC 2019-03-12 07:06:40
Writing application : mkvmerge v6.1.0 ('Old Devil') built on Mar 2 2013 14:32:37
Writing library : libebml v1.3.0 + libmatroska v1.4.0
Video
ID : 1
Format : AVC
Format/Info : Advanced Video Codec
Format profile : High@L4
Format settings : CABAC / 5 Ref Frames
Format settings, CABAC : Yes
Format settings, ReFrames : 5 frames
Codec ID : V_MPEG4/ISO/AVC
Duration : 1 h 21 min
Bit rate : 4 522 kb/s
Width : 1 920 pixels
Height : 772 pixels
Display aspect ratio : 2.487
Frame rate mode : Constant
Frame rate : 25.000 FPS
Color space : YUV
Chroma subsampling : 4:2:0
Bit depth : 8 bits
Scan type : Progressive
Bits/(Pixel*Frame) : 0.122
Stream size : 2.58 GiB (90%)
Language : English
Default : Yes
Forced : No
Color range : Limited
Color primaries : BT.709
Transfer characteristics : BT.709
Matrix coefficients : BT.709
Audio
ID : 2
Format : AC-3
Format/Info : Audio Coding 3
Codec ID : A_AC3
Duration : 1 h 21 min
Bit rate mode : Constant
Bit rate : 384 kb/s
Channel(s) : 6 channels
Channel positions : Front: L C R, Side: L R, LFE
Sampling rate : 48.0 kHz
Frame rate : 31.250 FPS (1536 SPF)
Bit depth : 16 bits
Compression mode : Lossy
Stream size : 224 MiB (8%)
Language : Russian
Service kind : Complete Main
Default : Yes
Forced : No
Menu
00:00:00.000 : en:Глава 1
00:04:37.640 : en:Глава 2
00:10:34.040 : en:Глава 3
00:17:21.040 : en:Глава 4
00:22:31.839 : en:Глава 5
00:28:34.039 : en:Глава 6
00:35:18.799 : en:Глава 7
00:40:15.878 : en:Глава 8
00:45:33.838 : en:Глава 9
00:51:20.397 : en:Глава 10
00:57:18.596 : en:Глава 11
01:02:25.556 : en:Глава 12
01:08:50.475 : en:Глава 13
01:14:19.995 : en:Глава 14
[rubit-tracker.ru].t32849.torrent 
Торрент: Зарегистрирован [ 2019-03-12 19:00 ] · 2218EE7379D752CDEEBE31027443E40FDC599D2B Смотреть онлайн

Скачать .torrent

Скачать

15 KB

Статус: * не проверено
Скачан: 0 раз
Размер: 2,85 GB
Поделиться:
terms.php
Похожие темы
[Профиль] [ЛС]
Показать сообщения:    
Ответить на тему

Текущее время: 24-Мар 03:13

Часовой пояс: UTC ± 0



Вы не можете начинать темы
Вы не можете отвечать на сообщения
Вы не можете редактировать свои сообщения
Вы не можете удалять свои сообщения
Вы не можете голосовать в опросах
Вы не можете прикреплять файлы к сообщениям
Вы можете скачивать файлы