*** Уважаемые пользователи нашего трекера! Мы рады видеть Вас на нашем обновленном сайте! ***

Навигация по Торрент раздачам

Фильмы

Сериалы

Док.Фильмы

Мультики

Музыка

Игры

Софт

Спорт

Аниме

Книги

Графика

Мобильные

Морской Пехотинец 6: Ближний Бой / The Marine 6: Close Quarters (2018) Blu-Ray EUR 1080p | Лицензия

Reply to topic
DL-List and Torrent activity
Size:  22.93 GB   |    Registered:  6 months   |    Completed:  0 times

Seeder not seen: Never

 
   
 
 
 
Author Message

Славик ®

Gender: Male

Longevity: 1 year 10 months

Posts: 4075



Награды: 4 (Подробнее)

Активный релизер (10 релизов) (Количество: 1) Активный релизер (100 релизов) (Количество: 1) Активный релизер (150 релизов) (Количество: 1)

Post 19-Nov-2018 10:12

[Quote]

Информация о фильме
Название: Морской Пехотинец 6: Ближний Бой
Оригинальное название: The Marine 6: Close Quarters
Год выхода: 2018
Жанр: Боевик, драма
Режиссер: Джеймс Нанн
В ролях: Майк Мизанин, Шон Майклз, Ребекка Куинн, Луиза Конолли-Бёрнхем, Теренс Мэйнард, Тим Вудворд, Мартин Форд, Анна Деметриу, Майкл Хиггс, Дэниэл Адегбойега

О фильме:Джейк Картер и его бывший коллега-морпех Люк Трэппер объединяют усилия, чтобы спасти похищенную девушку от банды международных преступников во главе с Мэдди Хейс.
Страна: США
Студия: Fiction Films
Продолжительность: 01:25:25
Перевод: Профессиональный многоголосый | Лицензия
Качество: Blu-Ray 1080p | PCH
Видео: MPEG-4 AVC, 1920x1080, 24932 Kbit/s, 23.976 fps
Звук:
Аудио: Русский (AC3, 6 ch, 640 Кбит/с), английский (DTS-HD MA, 6 ch, 2293 Кбит/c), французский (DTS-HD MA, 6 ch, 2291 Кбит/c), немецкий (DTS-HD MA, 6 ch, 2246 Кбит/c)
Субтитры: Русские, английские, арабские, китайские, хорватские, чешские, датские, эстонские, финские, французские, греческие, немецкие, венгерские, итальянские, корейские, литовские, латвийские, норвежские, польские, португальские, испанские, шведские, тайские, турецкие

Скриншоты

BDInfo

Disc Title: The.Marine.6.Close.Quarters.2018.COMPLETE.BLURAY-PCH
Disc Size: 24,623,179,504 bytes
Protection: AACS
Extras: BD-Java
BDInfo: 0.7.4.0
Notes:
BDINFO HOME:
Cinema Squid (old)
http://www.cinemasquid.com/blu-ray/tools/bdinfo
UniqProject GitHub (new)
https://github.com/UniqProject/BDInfo
INCLUDES FORUMS REPORT FOR:
AVS Forum Blu-ray Audio and Video Specifications Thread
http://www.avsforum.com/avs-vb/showthread.php?t=1155731
********************
PLAYLIST: 00001.MPLS
********************
Total   Video
Title                                                           Codec   Length  Movie Size      Disc Size       Bitrate Bitrate Main Audio Track                          Secondary Audio Track
-----                                                           ------  ------- --------------  --------------  ------- ------- ------------------                        ---------------------
00001.MPLS                                                      AVC     1:25:25 22,760,128,512  24,623,179,504  35.53   24.93   DTS-HD Master 5.1 2293Kbps (48kHz/16-bit)
DISC INFO:
Disc Title:     The.Marine.6.Close.Quarters.2018.COMPLETE.BLURAY-PCH
Disc Size:      24,623,179,504 bytes
Protection:     AACS
Extras:         BD-Java
BDInfo:         0.7.4.0
PLAYLIST REPORT:
Name:                   00001.MPLS
Length:                 1:25:25.120 (h:m:s.ms)
Size:                   22,760,128,512 bytes
Total Bitrate:          35.53 Mbps
VIDEO:
Codec                   Bitrate             Deion
-----                   -------             -----------
MPEG-4 AVC Video        24932 kbps          1080p / 23.976 fps / 16:9 / High Profile 4.1
AUDIO:
Codec                           Language        Bitrate         Deion
-----                           --------        -------         -----------
DTS-HD Master Audio             English         2293 kbps       5.1 / 48 kHz /  2293 kbps / 16-bit (DTS Core: 5.1 / 48 kHz /  1509 kbps / 16-bit)
DTS-HD Master Audio             French          2291 kbps       5.1 / 48 kHz /  2291 kbps / 16-bit (DTS Core: 5.1 / 48 kHz /  1509 kbps / 16-bit)
DTS-HD Master Audio             German          2246 kbps       5.1 / 48 kHz /  2246 kbps / 16-bit (DTS Core: 5.1 / 48 kHz /  1509 kbps / 16-bit)
Dolby Digital Audio             Russian         640 kbps        5.1 / 48 kHz /   640 kbps
SUBTITLES:
Codec                           Language        Bitrate         Deion
-----                           --------        -------         -----------
Presentation Graphics           English         33.069 kbps
Presentation Graphics           English         25.239 kbps
Presentation Graphics           English         33.038 kbps
Presentation Graphics           English         25.246 kbps
Presentation Graphics           Arabic          14.841 kbps
Presentation Graphics           Chinese         23.572 kbps
Presentation Graphics           Croatian        21.568 kbps
Presentation Graphics           Czech           23.308 kbps
Presentation Graphics           Danish          24.795 kbps
Presentation Graphics           Dutch           25.088 kbps
Presentation Graphics           Estonian        25.648 kbps
Presentation Graphics           Finnish         24.994 kbps
Presentation Graphics           French          25.231 kbps
Presentation Graphics           German          28.802 kbps
Presentation Graphics           Greek           26.221 kbps
Presentation Graphics           Hungarian       25.498 kbps
Presentation Graphics           Italian         26.454 kbps
Presentation Graphics           Korean          20.786 kbps
Presentation Graphics           Latvian         23.728 kbps
Presentation Graphics           Lithuanian      23.756 kbps
Presentation Graphics           Norwegian       23.060 kbps
Presentation Graphics           Polish          22.534 kbps
Presentation Graphics           Portuguese      24.567 kbps
Presentation Graphics           Portuguese      25.534 kbps
Presentation Graphics           Romanian        23.877 kbps
Presentation Graphics           Russian         25.223 kbps
Presentation Graphics           Spanish         24.818 kbps
Presentation Graphics           Spanish         25.225 kbps
Presentation Graphics           Swedish         24.366 kbps
Presentation Graphics           Thai            25.618 kbps
Presentation Graphics           Turkish         25.329 kbps
FILES:
Name            Time In         Length          Size            Total Bitrate
----            -------         ------          ----            -------------
00356.M2TS      0:00:00.000     1:25:25.120     22,760,128,512  35,527
CHAPTERS:
Number          Time In         Length          Avg Video Rate  Max 1-Sec Rate  Max 1-Sec Time  Max 5-Sec Rate  Max 5-Sec Time  Max 10Sec Rate  Max 10Sec Time  Avg Frame Size  Max Frame Size  Max Frame Time
------          -------         ------          --------------  --------------  --------------  --------------  --------------  --------------  --------------  --------------  --------------  --------------
1               0:00:00.000     0:06:33.851     25,145 kbps     35,716 kbps     00:00:38.121    28,635 kbps     00:02:33.528    27,969 kbps     00:04:06.079    131,079 bytes   602,425 bytes   00:04:56.421
2               0:06:33.851     0:04:05.036     25,302 kbps     32,511 kbps     00:08:00.146    27,291 kbps     00:07:49.635    26,725 kbps     00:08:31.886    131,913 bytes   659,261 bytes   00:06:37.980
3               0:10:38.888     0:03:07.187     24,954 kbps     30,975 kbps     00:13:10.456    26,469 kbps     00:13:13.125    25,856 kbps     00:11:45.329    130,101 bytes   574,313 bytes   00:13:46.075
4               0:13:46.075     0:06:03.404     25,053 kbps     36,121 kbps     00:18:52.131    27,103 kbps     00:14:18.482    26,543 kbps     00:17:36.805    130,615 bytes   563,228 bytes   00:13:47.743
5               0:19:49.479     0:07:57.101     25,109 kbps     35,791 kbps     00:25:14.346    27,216 kbps     00:21:57.149    26,323 kbps     00:22:20.505    130,909 bytes   594,088 bytes   00:22:24.176
6               0:27:46.581     0:03:47.477     24,665 kbps     31,468 kbps     00:30:41.130    26,742 kbps     00:27:58.802    25,850 kbps     00:27:55.423    128,594 bytes   530,353 bytes   00:28:03.765
7               0:31:34.058     0:05:59.567     24,839 kbps     32,486 kbps     00:33:06.943    27,821 kbps     00:36:54.879    26,352 kbps     00:36:54.712    129,497 bytes   625,569 bytes   00:34:19.932
8               0:37:33.626     0:03:43.431     24,759 kbps     33,348 kbps     00:37:35.002    26,719 kbps     00:38:02.321    25,897 kbps     00:37:58.943    129,082 bytes   556,800 bytes   00:38:03.948
9               0:41:17.057     0:05:26.868     25,016 kbps     37,194 kbps     00:45:54.877    28,082 kbps     00:46:25.365    26,844 kbps     00:46:20.319    130,422 bytes   551,673 bytes   00:45:17.715
10              0:46:43.926     0:05:29.912     25,208 kbps     35,238 kbps     00:48:06.383    28,688 kbps     00:48:03.589    26,935 kbps     00:49:45.357    131,422 bytes   558,900 bytes   00:52:13.839
11              0:52:13.839     0:05:17.483     24,735 kbps     35,345 kbps     00:56:28.760    26,979 kbps     00:56:22.587    26,099 kbps     00:53:20.030    128,954 bytes   652,973 bytes   00:52:16.299
12              0:57:31.322     0:04:34.107     24,555 kbps     36,146 kbps     00:59:12.924    27,135 kbps     00:58:14.324    25,769 kbps     00:58:31.216    128,020 bytes   449,053 bytes   00:58:05.565
13              1:02:05.430     0:05:57.315     24,377 kbps     38,996 kbps     01:03:18.753    28,515 kbps     01:02:56.481    26,194 kbps     01:07:52.693    127,091 bytes   631,839 bytes   01:08:01.869
14              1:08:02.745     0:07:18.521     25,822 kbps     37,048 kbps     01:14:31.341    32,947 kbps     01:14:27.463    29,332 kbps     01:14:23.917    134,623 bytes   665,454 bytes   01:09:44.054
15              1:15:21.266     0:02:47.417     25,560 kbps     32,372 kbps     01:15:23.519    28,416 kbps     01:17:21.511    27,449 kbps     01:17:21.511    133,256 bytes   422,543 bytes   01:15:28.899
16              1:18:08.684     0:07:16.435     23,960 kbps     34,966 kbps     01:19:28.722    29,216 kbps     01:19:27.053    26,838 kbps     01:18:14.815    124,927 bytes   670,412 bytes   01:18:49.933
STREAM DIAGNOSTICS:
File            PID             Type            Codec           Language                Seconds                 Bitrate                 Bytes           Packets
----            ---             ----            -----           --------                --------------          --------------          -------------   -----
00356.M2TS      4113 (0x1011)   0x1B            AVC                                     5124.995                24,933                  15,972,379,997  86,878,647
00356.M2TS      4352 (0x1100)   0x86            DTS-HD MA       eng (English)           5124.995                2,293                   1,468,805,996   8,777,116
00356.M2TS      4353 (0x1101)   0x86            DTS-HD MA       fra (French)            5124.995                2,291                   1,467,413,452   8,766,354
00356.M2TS      4354 (0x1102)   0x86            DTS-HD MA       deu (German)            5124.995                2,246                   1,439,014,964   8,620,408
00356.M2TS      4355 (0x1103)   0x81            AC3             rus (Russian)           5124.995                640                     410,012,160     2,402,415
00356.M2TS      4608 (0x1200)   0x90            PGS             eng (English)           5124.995                33                      21,185,588      122,962
00356.M2TS      4609 (0x1201)   0x90            PGS             eng (English)           5124.995                25                      16,169,129      93,715
00356.M2TS      4610 (0x1202)   0x90            PGS             eng (English)           5124.995                33                      21,165,399      122,849
00356.M2TS      4611 (0x1203)   0x90            PGS             eng (English)           5124.995                25                      16,173,329      93,740
00356.M2TS      4612 (0x1204)   0x90            PGS             ara (Arabic)            5124.995                15                      9,507,579       57,580
00356.M2TS      4613 (0x1205)   0x90            PGS             zho (Chinese)           5124.995                24                      15,101,053      88,003
00356.M2TS      4614 (0x1206)   0x90            PGS             hrv (Croatian)          5124.995                22                      13,817,068      80,997
00356.M2TS      4615 (0x1207)   0x90            PGS             ces (Czech)             5124.995                23                      14,932,252      87,060
00356.M2TS      4616 (0x1208)   0x90            PGS             dan (Danish)            5124.995                25                      15,884,864      92,189
00356.M2TS      4617 (0x1209)   0x90            PGS             nld (Dutch)             5124.995                25                      16,072,278      93,019
00356.M2TS      4618 (0x120A)   0x90            PGS             est (Estonian)          5124.995                26                      16,431,298      95,172
00356.M2TS      4619 (0x120B)   0x90            PGS             fin (Finnish)           5124.995                25                      16,012,276      92,865
00356.M2TS      4620 (0x120C)   0x90            PGS             fra (French)            5124.995                25                      16,164,065      93,704
00356.M2TS      4621 (0x120D)   0x90            PGS             deu (German)            5124.995                29                      18,451,595      106,165
00356.M2TS      4622 (0x120E)   0x90            PGS             ell (Greek)             5124.995                26                      16,798,417      97,196
00356.M2TS      4623 (0x120F)   0x90            PGS             hun (Hungarian)         5124.995                25                      16,334,920      94,667
00356.M2TS      4624 (0x1210)   0x90            PGS             ita (Italian)           5124.995                26                      16,947,192      98,023
00356.M2TS      4625 (0x1211)   0x90            PGS             kor (Korean)            5124.995                21                      13,316,492      79,047
00356.M2TS      4626 (0x1212)   0x90            PGS             lav (Latvian)           5124.995                24                      15,201,333      88,536
00356.M2TS      4627 (0x1213)   0x90            PGS             lit (Lithuanian)        5124.995                24                      15,218,726      88,506
00356.M2TS      4628 (0x1214)   0x90            PGS             nor (Norwegian)         5124.995                23                      14,772,901      86,141
00356.M2TS      4629 (0x1215)   0x90            PGS             pol (Polish)            5124.995                23                      14,435,921      84,221
00356.M2TS      4630 (0x1216)   0x90            PGS             por (Portuguese)        5124.995                25                      15,738,497      91,437
00356.M2TS      4631 (0x1217)   0x90            PGS             por (Portuguese)        5124.995                26                      16,357,789      94,747
00356.M2TS      4632 (0x1218)   0x90            PGS             ron (Romanian)          5124.995                24                      15,296,601      89,003
00356.M2TS      4633 (0x1219)   0x90            PGS             rus (Russian)           5124.995                25                      16,158,575      93,740
00356.M2TS      4634 (0x121A)   0x90            PGS             spa (Spanish)           5124.995                25                      15,899,465      92,285
00356.M2TS      4635 (0x121B)   0x90            PGS             spa (Spanish)           5124.995                25                      16,160,384      93,756
00356.M2TS      4636 (0x121C)   0x90            PGS             swe (Swedish)           5124.995                24                      15,609,848      90,700
00356.M2TS      4637 (0x121D)   0x90            PGS             tha (Thai)              5124.995                26                      16,411,789      95,118
00356.M2TS      4638 (0x121E)   0x90            PGS             tur (Turkish)           5124.995                25                      16,227,034      94,001
QUICK SUMMARY:
Disc Title: The.Marine.6.Close.Quarters.2018.COMPLETE.BLURAY-PCH
Disc Size: 24,623,179,504 bytes
Protection: AACS
Playlist: 00001.MPLS
Size: 22,760,128,512 bytes
Length: 1:25:25.120
Total Bitrate: 35.53 Mbps
Video: MPEG-4 AVC Video / 24932 kbps / 1080p / 23.976 fps / 16:9 / High Profile 4.1
Audio: English / DTS-HD Master Audio / 5.1 / 48 kHz / 2293 kbps / 16-bit (DTS Core: 5.1 / 48 kHz / 1509 kbps / 16-bit)
Audio: French / DTS-HD Master Audio / 5.1 / 48 kHz / 2291 kbps / 16-bit (DTS Core: 5.1 / 48 kHz / 1509 kbps / 16-bit)
Audio: German / DTS-HD Master Audio / 5.1 / 48 kHz / 2246 kbps / 16-bit (DTS Core: 5.1 / 48 kHz / 1509 kbps / 16-bit)
Audio: Russian / Dolby Digital Audio / 5.1 / 48 kHz / 640 kbps
Subtitle: English / 33.069 kbps
Subtitle: English / 25.239 kbps
Subtitle: English / 33.038 kbps
Subtitle: English / 25.246 kbps
Subtitle: Arabic / 14.841 kbps
Subtitle: Chinese / 23.572 kbps
Subtitle: Croatian / 21.568 kbps
Subtitle: Czech / 23.308 kbps
Subtitle: Danish / 24.795 kbps
Subtitle: Dutch / 25.088 kbps
Subtitle: Estonian / 25.648 kbps
Subtitle: Finnish / 24.994 kbps
Subtitle: French / 25.231 kbps
Subtitle: German / 28.802 kbps
Subtitle: Greek / 26.221 kbps
Subtitle: Hungarian / 25.498 kbps
Subtitle: Italian / 26.454 kbps
Subtitle: Korean / 20.786 kbps
Subtitle: Latvian / 23.728 kbps
Subtitle: Lithuanian / 23.756 kbps
Subtitle: Norwegian / 23.060 kbps
Subtitle: Polish / 22.534 kbps
Subtitle: Portuguese / 24.567 kbps
Subtitle: Portuguese / 25.534 kbps
Subtitle: Romanian / 23.877 kbps
Subtitle: Russian / 25.223 kbps
Subtitle: Spanish / 24.818 kbps
Subtitle: Spanish / 25.225 kbps
Subtitle: Swedish / 24.366 kbps
Subtitle: Thai / 25.618 kbps
Subtitle: Turkish / 25.329 kbps
********************
PLAYLIST: 00002.MPLS
********************
Total   Video
Title                                                           Codec   Length  Movie Size      Disc Size       Bitrate Bitrate Main Audio Track                          Secondary Audio Track
-----                                                           ------  ------- --------------  --------------  ------- ------- ------------------                        ---------------------
00002.MPLS                                                      AVC     1:25:25 22,760,128,512  24,623,179,504  35.53   24.93   DTS-HD Master 5.1 2293Kbps (48kHz/16-bit)
DISC INFO:
Disc Title:     The.Marine.6.Close.Quarters.2018.COMPLETE.BLURAY-PCH
Disc Size:      24,623,179,504 bytes
Protection:     AACS
Extras:         BD-Java
BDInfo:         0.7.4.0
PLAYLIST REPORT:
Name:                   00002.MPLS
Length:                 1:25:25.120 (h:m:s.ms)
Size:                   22,760,128,512 bytes
Total Bitrate:          35.53 Mbps
(*) Indicates included stream hidden by this playlist.
VIDEO:
Codec                   Bitrate             Deion
-----                   -------             -----------
MPEG-4 AVC Video        24932 kbps          1080p / 23.976 fps / 16:9 / High Profile 4.1
AUDIO:
Codec                           Language        Bitrate         Deion
-----                           --------        -------         -----------
DTS-HD Master Audio             English         2293 kbps       5.1 / 48 kHz /  2293 kbps / 16-bit (DTS Core: 5.1 / 48 kHz /  1509 kbps / 16-bit)
DTS-HD Master Audio             French          2291 kbps       5.1 / 48 kHz /  2291 kbps / 16-bit (DTS Core: 5.1 / 48 kHz /  1509 kbps / 16-bit)
DTS-HD Master Audio             German          2246 kbps       5.1 / 48 kHz /  2246 kbps / 16-bit (DTS Core: 5.1 / 48 kHz /  1509 kbps / 16-bit)
Dolby Digital Audio             Russian         640 kbps        5.1 / 48 kHz /   640 kbps
SUBTITLES:
Codec                           Language        Bitrate         Deion
-----                           --------        -------         -----------
Presentation Graphics           English         33.069 kbps
Presentation Graphics           English         25.239 kbps
* Presentation Graphics         English         33.038 kbps
* Presentation Graphics         English         25.246 kbps
Presentation Graphics           Arabic          14.841 kbps
Presentation Graphics           Chinese         23.572 kbps
Presentation Graphics           Croatian        21.568 kbps
Presentation Graphics           Czech           23.308 kbps
Presentation Graphics           Danish          24.795 kbps
Presentation Graphics           Dutch           25.088 kbps
Presentation Graphics           Estonian        25.648 kbps
Presentation Graphics           Finnish         24.994 kbps
Presentation Graphics           French          25.231 kbps
Presentation Graphics           German          28.802 kbps
Presentation Graphics           Greek           26.221 kbps
Presentation Graphics           Hungarian       25.498 kbps
Presentation Graphics           Italian         26.454 kbps
Presentation Graphics           Korean          20.786 kbps
Presentation Graphics           Latvian         23.728 kbps
Presentation Graphics           Lithuanian      23.756 kbps
Presentation Graphics           Norwegian       23.060 kbps
Presentation Graphics           Polish          22.534 kbps
Presentation Graphics           Portuguese      24.567 kbps
Presentation Graphics           Portuguese      25.534 kbps
Presentation Graphics           Romanian        23.877 kbps
Presentation Graphics           Russian         25.223 kbps
Presentation Graphics           Spanish         24.818 kbps
Presentation Graphics           Spanish         25.225 kbps
Presentation Graphics           Swedish         24.366 kbps
Presentation Graphics           Thai            25.618 kbps
Presentation Graphics           Turkish         25.329 kbps
FILES:
Name            Time In         Length          Size            Total Bitrate
----            -------         ------          ----            -------------
00356.M2TS      0:00:00.000     1:25:25.120     22,760,128,512  35,527
CHAPTERS:
Number          Time In         Length          Avg Video Rate  Max 1-Sec Rate  Max 1-Sec Time  Max 5-Sec Rate  Max 5-Sec Time  Max 10Sec Rate  Max 10Sec Time  Avg Frame Size  Max Frame Size  Max Frame Time
------          -------         ------          --------------  --------------  --------------  --------------  --------------  --------------  --------------  --------------  --------------  --------------
1               0:00:00.000     0:06:33.851     25,145 kbps     35,716 kbps     00:00:38.121    28,635 kbps     00:02:33.528    27,969 kbps     00:04:06.079    131,079 bytes   602,425 bytes   00:04:56.421
2               0:06:33.851     0:04:05.036     25,302 kbps     32,511 kbps     00:08:00.146    27,291 kbps     00:07:49.635    26,725 kbps     00:08:31.886    131,913 bytes   659,261 bytes   00:06:37.980
3               0:10:38.888     0:03:07.187     24,954 kbps     30,975 kbps     00:13:10.456    26,469 kbps     00:13:13.125    25,856 kbps     00:11:45.329    130,101 bytes   574,313 bytes   00:13:46.075
4               0:13:46.075     0:06:03.404     25,053 kbps     36,121 kbps     00:18:52.131    27,103 kbps     00:14:18.482    26,543 kbps     00:17:36.805    130,615 bytes   563,228 bytes   00:13:47.743
5               0:19:49.479     0:07:57.101     25,109 kbps     35,791 kbps     00:25:14.346    27,216 kbps     00:21:57.149    26,323 kbps     00:22:20.505    130,909 bytes   594,088 bytes   00:22:24.176
6               0:27:46.581     0:03:47.477     24,665 kbps     31,468 kbps     00:30:41.130    26,742 kbps     00:27:58.802    25,850 kbps     00:27:55.423    128,594 bytes   530,353 bytes   00:28:03.765
7               0:31:34.058     0:05:59.567     24,839 kbps     32,486 kbps     00:33:06.943    27,821 kbps     00:36:54.879    26,352 kbps     00:36:54.712    129,497 bytes   625,569 bytes   00:34:19.932
8               0:37:33.626     0:03:43.431     24,759 kbps     33,348 kbps     00:37:35.002    26,719 kbps     00:38:02.321    25,897 kbps     00:37:58.943    129,082 bytes   556,800 bytes   00:38:03.948
9               0:41:17.057     0:05:26.868     25,016 kbps     37,194 kbps     00:45:54.877    28,082 kbps     00:46:25.365    26,844 kbps     00:46:20.319    130,422 bytes   551,673 bytes   00:45:17.715
10              0:46:43.926     0:05:29.912     25,208 kbps     35,238 kbps     00:48:06.383    28,688 kbps     00:48:03.589    26,935 kbps     00:49:45.357    131,422 bytes   558,900 bytes   00:52:13.839
11              0:52:13.839     0:05:17.483     24,735 kbps     35,345 kbps     00:56:28.760    26,979 kbps     00:56:22.587    26,099 kbps     00:53:20.030    128,954 bytes   652,973 bytes   00:52:16.299
12              0:57:31.322     0:04:34.107     24,555 kbps     36,146 kbps     00:59:12.924    27,135 kbps     00:58:14.324    25,769 kbps     00:58:31.216    128,020 bytes   449,053 bytes   00:58:05.565
13              1:02:05.430     0:05:57.315     24,377 kbps     38,996 kbps     01:03:18.753    28,515 kbps     01:02:56.481    26,194 kbps     01:07:52.693    127,091 bytes   631,839 bytes   01:08:01.869
14              1:08:02.745     0:07:18.521     25,822 kbps     37,048 kbps     01:14:31.341    32,947 kbps     01:14:27.463    29,332 kbps     01:14:23.917    134,623 bytes   665,454 bytes   01:09:44.054
15              1:15:21.266     0:02:47.417     25,560 kbps     32,372 kbps     01:15:23.519    28,416 kbps     01:17:21.511    27,449 kbps     01:17:21.511    133,256 bytes   422,543 bytes   01:15:28.899
16              1:18:08.684     0:07:16.435     23,960 kbps     34,966 kbps     01:19:28.722    29,216 kbps     01:19:27.053    26,838 kbps     01:18:14.815    124,927 bytes   670,412 bytes   01:18:49.933
STREAM DIAGNOSTICS:
File            PID             Type            Codec           Language                Seconds                 Bitrate                 Bytes           Packets
----            ---             ----            -----           --------                --------------          --------------          -------------   -----
00356.M2TS      4113 (0x1011)   0x1B            AVC                                     5124.995                24,933                  15,972,379,997  86,878,647
00356.M2TS      4352 (0x1100)   0x86            DTS-HD MA       eng (English)           5124.995                2,293                   1,468,805,996   8,777,116
00356.M2TS      4353 (0x1101)   0x86            DTS-HD MA       fra (French)            5124.995                2,291                   1,467,413,452   8,766,354
00356.M2TS      4354 (0x1102)   0x86            DTS-HD MA       deu (German)            5124.995                2,246                   1,439,014,964   8,620,408
00356.M2TS      4355 (0x1103)   0x81            AC3             rus (Russian)           5124.995                640                     410,012,160     2,402,415
00356.M2TS      4608 (0x1200)   0x90            PGS             eng (English)           5124.995                33                      21,185,588      122,962
00356.M2TS      4609 (0x1201)   0x90            PGS             eng (English)           5124.995                25                      16,169,129      93,715
00356.M2TS      4610 (0x1202)   0x90            PGS             eng (English)           5124.995                33                      21,165,399      122,849
00356.M2TS      4611 (0x1203)   0x90            PGS             eng (English)           5124.995                25                      16,173,329      93,740
00356.M2TS      4612 (0x1204)   0x90            PGS             ara (Arabic)            5124.995                15                      9,507,579       57,580
00356.M2TS      4613 (0x1205)   0x90            PGS             zho (Chinese)           5124.995                24                      15,101,053      88,003
00356.M2TS      4614 (0x1206)   0x90            PGS             hrv (Croatian)          5124.995                22                      13,817,068      80,997
00356.M2TS      4615 (0x1207)   0x90            PGS             ces (Czech)             5124.995                23                      14,932,252      87,060
00356.M2TS      4616 (0x1208)   0x90            PGS             dan (Danish)            5124.995                25                      15,884,864      92,189
00356.M2TS      4617 (0x1209)   0x90            PGS             nld (Dutch)             5124.995                25                      16,072,278      93,019
00356.M2TS      4618 (0x120A)   0x90            PGS             est (Estonian)          5124.995                26                      16,431,298      95,172
00356.M2TS      4619 (0x120B)   0x90            PGS             fin (Finnish)           5124.995                25                      16,012,276      92,865
00356.M2TS      4620 (0x120C)   0x90            PGS             fra (French)            5124.995                25                      16,164,065      93,704
00356.M2TS      4621 (0x120D)   0x90            PGS             deu (German)            5124.995                29                      18,451,595      106,165
00356.M2TS      4622 (0x120E)   0x90            PGS             ell (Greek)             5124.995                26                      16,798,417      97,196
00356.M2TS      4623 (0x120F)   0x90            PGS             hun (Hungarian)         5124.995                25                      16,334,920      94,667
00356.M2TS      4624 (0x1210)   0x90            PGS             ita (Italian)           5124.995                26                      16,947,192      98,023
00356.M2TS      4625 (0x1211)   0x90            PGS             kor (Korean)            5124.995                21                      13,316,492      79,047
00356.M2TS      4626 (0x1212)   0x90            PGS             lav (Latvian)           5124.995                24                      15,201,333      88,536
00356.M2TS      4627 (0x1213)   0x90            PGS             lit (Lithuanian)        5124.995                24                      15,218,726      88,506
00356.M2TS      4628 (0x1214)   0x90            PGS             nor (Norwegian)         5124.995                23                      14,772,901      86,141
00356.M2TS      4629 (0x1215)   0x90            PGS             pol (Polish)            5124.995                23                      14,435,921      84,221
00356.M2TS      4630 (0x1216)   0x90            PGS             por (Portuguese)        5124.995                25                      15,738,497      91,437
00356.M2TS      4631 (0x1217)   0x90            PGS             por (Portuguese)        5124.995                26                      16,357,789      94,747
00356.M2TS      4632 (0x1218)   0x90            PGS             ron (Romanian)          5124.995                24                      15,296,601      89,003
00356.M2TS      4633 (0x1219)   0x90            PGS             rus (Russian)           5124.995                25                      16,158,575      93,740
00356.M2TS      4634 (0x121A)   0x90            PGS             spa (Spanish)           5124.995                25                      15,899,465      92,285
00356.M2TS      4635 (0x121B)   0x90            PGS             spa (Spanish)           5124.995                25                      16,160,384      93,756
00356.M2TS      4636 (0x121C)   0x90            PGS             swe (Swedish)           5124.995                24                      15,609,848      90,700
00356.M2TS      4637 (0x121D)   0x90            PGS             tha (Thai)              5124.995                26                      16,411,789      95,118
00356.M2TS      4638 (0x121E)   0x90            PGS             tur (Turkish)           5124.995                25                      16,227,034      94,001
QUICK SUMMARY:
Disc Title: The.Marine.6.Close.Quarters.2018.COMPLETE.BLURAY-PCH
Disc Size: 24,623,179,504 bytes
Protection: AACS
Playlist: 00002.MPLS
Size: 22,760,128,512 bytes
Length: 1:25:25.120
Total Bitrate: 35.53 Mbps
Video: MPEG-4 AVC Video / 24932 kbps / 1080p / 23.976 fps / 16:9 / High Profile 4.1
Audio: English / DTS-HD Master Audio / 5.1 / 48 kHz / 2293 kbps / 16-bit (DTS Core: 5.1 / 48 kHz / 1509 kbps / 16-bit)
Audio: French / DTS-HD Master Audio / 5.1 / 48 kHz / 2291 kbps / 16-bit (DTS Core: 5.1 / 48 kHz / 1509 kbps / 16-bit)
Audio: German / DTS-HD Master Audio / 5.1 / 48 kHz / 2246 kbps / 16-bit (DTS Core: 5.1 / 48 kHz / 1509 kbps / 16-bit)
Audio: Russian / Dolby Digital Audio / 5.1 / 48 kHz / 640 kbps
Subtitle: English / 33.069 kbps
Subtitle: English / 25.239 kbps
* Subtitle: English / 33.038 kbps
* Subtitle: English / 25.246 kbps
Subtitle: Arabic / 14.841 kbps
Subtitle: Chinese / 23.572 kbps
Subtitle: Croatian / 21.568 kbps
Subtitle: Czech / 23.308 kbps
Subtitle: Danish / 24.795 kbps
Subtitle: Dutch / 25.088 kbps
Subtitle: Estonian / 25.648 kbps
Subtitle: Finnish / 24.994 kbps
Subtitle: French / 25.231 kbps
Subtitle: German / 28.802 kbps
Subtitle: Greek / 26.221 kbps
Subtitle: Hungarian / 25.498 kbps
Subtitle: Italian / 26.454 kbps
Subtitle: Korean / 20.786 kbps
Subtitle: Latvian / 23.728 kbps
Subtitle: Lithuanian / 23.756 kbps
Subtitle: Norwegian / 23.060 kbps
Subtitle: Polish / 22.534 kbps
Subtitle: Portuguese / 24.567 kbps
Subtitle: Portuguese / 25.534 kbps
Subtitle: Romanian / 23.877 kbps
Subtitle: Russian / 25.223 kbps
Subtitle: Spanish / 24.818 kbps
Subtitle: Spanish / 25.225 kbps
Subtitle: Swedish / 24.366 kbps
Subtitle: Thai / 25.618 kbps
Subtitle: Turkish / 25.329 kbps
********************
PLAYLIST: 00003.MPLS
********************
Total   Video
Title                                                           Codec   Length  Movie Size      Disc Size       Bitrate Bitrate Main Audio Track                          Secondary Audio Track
-----                                                           ------  ------- --------------  --------------  ------- ------- ------------------                        ---------------------
00003.MPLS                                                      AVC     1:25:25 22,760,128,512  24,623,179,504  35.53   24.93   DTS-HD Master 5.1 2293Kbps (48kHz/16-bit)
DISC INFO:
Disc Title:     The.Marine.6.Close.Quarters.2018.COMPLETE.BLURAY-PCH
Disc Size:      24,623,179,504 bytes
Protection:     AACS
Extras:         BD-Java
BDInfo:         0.7.4.0
PLAYLIST REPORT:
Name:                   00003.MPLS
Length:                 1:25:25.120 (h:m:s.ms)
Size:                   22,760,128,512 bytes
Total Bitrate:          35.53 Mbps
(*) Indicates included stream hidden by this playlist.
VIDEO:
Codec                   Bitrate             Deion
-----                   -------             -----------
MPEG-4 AVC Video        24932 kbps          1080p / 23.976 fps / 16:9 / High Profile 4.1
AUDIO:
Codec                           Language        Bitrate         Deion
-----                           --------        -------         -----------
DTS-HD Master Audio             English         2293 kbps       5.1 / 48 kHz /  2293 kbps / 16-bit (DTS Core: 5.1 / 48 kHz /  1509 kbps / 16-bit)
DTS-HD Master Audio             French          2291 kbps       5.1 / 48 kHz /  2291 kbps / 16-bit (DTS Core: 5.1 / 48 kHz /  1509 kbps / 16-bit)
DTS-HD Master Audio             German          2246 kbps       5.1 / 48 kHz /  2246 kbps / 16-bit (DTS Core: 5.1 / 48 kHz /  1509 kbps / 16-bit)
Dolby Digital Audio             Russian         640 kbps        5.1 / 48 kHz /   640 kbps
SUBTITLES:
Codec                           Language        Bitrate         Deion
-----                           --------        -------         -----------
* Presentation Graphics         English         33.069 kbps
* Presentation Graphics         English         25.239 kbps
Presentation Graphics           English         33.038 kbps
Presentation Graphics           English         25.246 kbps
Presentation Graphics           Arabic          14.841 kbps
Presentation Graphics           Chinese         23.572 kbps
Presentation Graphics           Croatian        21.568 kbps
Presentation Graphics           Czech           23.308 kbps
Presentation Graphics           Danish          24.795 kbps
Presentation Graphics           Dutch           25.088 kbps
Presentation Graphics           Estonian        25.648 kbps
Presentation Graphics           Finnish         24.994 kbps
Presentation Graphics           French          25.231 kbps
Presentation Graphics           German          28.802 kbps
Presentation Graphics           Greek           26.221 kbps
Presentation Graphics           Hungarian       25.498 kbps
Presentation Graphics           Italian         26.454 kbps
Presentation Graphics           Korean          20.786 kbps
Presentation Graphics           Latvian         23.728 kbps
Presentation Graphics           Lithuanian      23.756 kbps
Presentation Graphics           Norwegian       23.060 kbps
Presentation Graphics           Polish          22.534 kbps
Presentation Graphics           Portuguese      24.567 kbps
Presentation Graphics           Portuguese      25.534 kbps
Presentation Graphics           Romanian        23.877 kbps
Presentation Graphics           Russian         25.223 kbps
Presentation Graphics           Spanish         24.818 kbps
Presentation Graphics           Spanish         25.225 kbps
Presentation Graphics           Swedish         24.366 kbps
Presentation Graphics           Thai            25.618 kbps
Presentation Graphics           Turkish         25.329 kbps
FILES:
Name            Time In         Length          Size            Total Bitrate
----            -------         ------          ----            -------------
00356.M2TS      0:00:00.000     1:25:25.120     22,760,128,512  35,527
CHAPTERS:
Number          Time In         Length          Avg Video Rate  Max 1-Sec Rate  Max 1-Sec Time  Max 5-Sec Rate  Max 5-Sec Time  Max 10Sec Rate  Max 10Sec Time  Avg Frame Size  Max Frame Size  Max Frame Time
------          -------         ------          --------------  --------------  --------------  --------------  --------------  --------------  --------------  --------------  --------------  --------------
1               0:00:00.000     0:06:33.851     25,145 kbps     35,716 kbps     00:00:38.121    28,635 kbps     00:02:33.528    27,969 kbps     00:04:06.079    131,079 bytes   602,425 bytes   00:04:56.421
2               0:06:33.851     0:04:05.036     25,302 kbps     32,511 kbps     00:08:00.146    27,291 kbps     00:07:49.635    26,725 kbps     00:08:31.886    131,913 bytes   659,261 bytes   00:06:37.980
3               0:10:38.888     0:03:07.187     24,954 kbps     30,975 kbps     00:13:10.456    26,469 kbps     00:13:13.125    25,856 kbps     00:11:45.329    130,101 bytes   574,313 bytes   00:13:46.075
4               0:13:46.075     0:06:03.404     25,053 kbps     36,121 kbps     00:18:52.131    27,103 kbps     00:14:18.482    26,543 kbps     00:17:36.805    130,615 bytes   563,228 bytes   00:13:47.743
5               0:19:49.479     0:07:57.101     25,109 kbps     35,791 kbps     00:25:14.346    27,216 kbps     00:21:57.149    26,323 kbps     00:22:20.505    130,909 bytes   594,088 bytes   00:22:24.176
6               0:27:46.581     0:03:47.477     24,665 kbps     31,468 kbps     00:30:41.130    26,742 kbps     00:27:58.802    25,850 kbps     00:27:55.423    128,594 bytes   530,353 bytes   00:28:03.765
7               0:31:34.058     0:05:59.567     24,839 kbps     32,486 kbps     00:33:06.943    27,821 kbps     00:36:54.879    26,352 kbps     00:36:54.712    129,497 bytes   625,569 bytes   00:34:19.932
8               0:37:33.626     0:03:43.431     24,759 kbps     33,348 kbps     00:37:35.002    26,719 kbps     00:38:02.321    25,897 kbps     00:37:58.943    129,082 bytes   556,800 bytes   00:38:03.948
9               0:41:17.057     0:05:26.868     25,016 kbps     37,194 kbps     00:45:54.877    28,082 kbps     00:46:25.365    26,844 kbps     00:46:20.319    130,422 bytes   551,673 bytes   00:45:17.715
10              0:46:43.926     0:05:29.912     25,208 kbps     35,238 kbps     00:48:06.383    28,688 kbps     00:48:03.589    26,935 kbps     00:49:45.357    131,422 bytes   558,900 bytes   00:52:13.839
11              0:52:13.839     0:05:17.483     24,735 kbps     35,345 kbps     00:56:28.760    26,979 kbps     00:56:22.587    26,099 kbps     00:53:20.030    128,954 bytes   652,973 bytes   00:52:16.299
12              0:57:31.322     0:04:34.107     24,555 kbps     36,146 kbps     00:59:12.924    27,135 kbps     00:58:14.324    25,769 kbps     00:58:31.216    128,020 bytes   449,053 bytes   00:58:05.565
13              1:02:05.430     0:05:57.315     24,377 kbps     38,996 kbps     01:03:18.753    28,515 kbps     01:02:56.481    26,194 kbps     01:07:52.693    127,091 bytes   631,839 bytes   01:08:01.869
14              1:08:02.745     0:07:18.521     25,822 kbps     37,048 kbps     01:14:31.341    32,947 kbps     01:14:27.463    29,332 kbps     01:14:23.917    134,623 bytes   665,454 bytes   01:09:44.054
15              1:15:21.266     0:02:47.417     25,560 kbps     32,372 kbps     01:15:23.519    28,416 kbps     01:17:21.511    27,449 kbps     01:17:21.511    133,256 bytes   422,543 bytes   01:15:28.899
16              1:18:08.684     0:07:16.435     23,960 kbps     34,966 kbps     01:19:28.722    29,216 kbps     01:19:27.053    26,838 kbps     01:18:14.815    124,927 bytes   670,412 bytes   01:18:49.933
STREAM DIAGNOSTICS:
File            PID             Type            Codec           Language                Seconds                 Bitrate                 Bytes           Packets
----            ---             ----            -----           --------                --------------          --------------          -------------   -----
00356.M2TS      4113 (0x1011)   0x1B            AVC                                     5124.995                24,933                  15,972,379,997  86,878,647
00356.M2TS      4352 (0x1100)   0x86            DTS-HD MA       eng (English)           5124.995                2,293                   1,468,805,996   8,777,116
00356.M2TS      4353 (0x1101)   0x86            DTS-HD MA       fra (French)            5124.995                2,291                   1,467,413,452   8,766,354
00356.M2TS      4354 (0x1102)   0x86            DTS-HD MA       deu (German)            5124.995                2,246                   1,439,014,964   8,620,408
00356.M2TS      4355 (0x1103)   0x81            AC3             rus (Russian)           5124.995                640                     410,012,160     2,402,415
00356.M2TS      4608 (0x1200)   0x90            PGS             eng (English)           5124.995                33                      21,185,588      122,962
00356.M2TS      4609 (0x1201)   0x90            PGS             eng (English)           5124.995                25                      16,169,129      93,715
00356.M2TS      4610 (0x1202)   0x90            PGS             eng (English)           5124.995                33                      21,165,399      122,849
00356.M2TS      4611 (0x1203)   0x90            PGS             eng (English)           5124.995                25                      16,173,329      93,740
00356.M2TS      4612 (0x1204)   0x90            PGS             ara (Arabic)            5124.995                15                      9,507,579       57,580
00356.M2TS      4613 (0x1205)   0x90            PGS             zho (Chinese)           5124.995                24                      15,101,053      88,003
00356.M2TS      4614 (0x1206)   0x90            PGS             hrv (Croatian)          5124.995                22                      13,817,068      80,997
00356.M2TS      4615 (0x1207)   0x90            PGS             ces (Czech)             5124.995                23                      14,932,252      87,060
00356.M2TS      4616 (0x1208)   0x90            PGS             dan (Danish)            5124.995                25                      15,884,864      92,189
00356.M2TS      4617 (0x1209)   0x90            PGS             nld (Dutch)             5124.995                25                      16,072,278      93,019
00356.M2TS      4618 (0x120A)   0x90            PGS             est (Estonian)          5124.995                26                      16,431,298      95,172
00356.M2TS      4619 (0x120B)   0x90            PGS             fin (Finnish)           5124.995                25                      16,012,276      92,865
00356.M2TS      4620 (0x120C)   0x90            PGS             fra (French)            5124.995                25                      16,164,065      93,704
00356.M2TS      4621 (0x120D)   0x90            PGS             deu (German)            5124.995                29                      18,451,595      106,165
00356.M2TS      4622 (0x120E)   0x90            PGS             ell (Greek)             5124.995                26                      16,798,417      97,196
00356.M2TS      4623 (0x120F)   0x90            PGS             hun (Hungarian)         5124.995                25                      16,334,920      94,667
00356.M2TS      4624 (0x1210)   0x90            PGS             ita (Italian)           5124.995                26                      16,947,192      98,023
00356.M2TS      4625 (0x1211)   0x90            PGS             kor (Korean)            5124.995                21                      13,316,492      79,047
00356.M2TS      4626 (0x1212)   0x90            PGS             lav (Latvian)           5124.995                24                      15,201,333      88,536
00356.M2TS      4627 (0x1213)   0x90            PGS             lit (Lithuanian)        5124.995                24                      15,218,726      88,506
00356.M2TS      4628 (0x1214)   0x90            PGS             nor (Norwegian)         5124.995                23                      14,772,901      86,141
00356.M2TS      4629 (0x1215)   0x90            PGS             pol (Polish)            5124.995                23                      14,435,921      84,221
00356.M2TS      4630 (0x1216)   0x90            PGS             por (Portuguese)        5124.995                25                      15,738,497      91,437
00356.M2TS      4631 (0x1217)   0x90            PGS             por (Portuguese)        5124.995                26                      16,357,789      94,747
00356.M2TS      4632 (0x1218)   0x90            PGS             ron (Romanian)          5124.995                24                      15,296,601      89,003
00356.M2TS      4633 (0x1219)   0x90            PGS             rus (Russian)           5124.995                25                      16,158,575      93,740
00356.M2TS      4634 (0x121A)   0x90            PGS             spa (Spanish)           5124.995                25                      15,899,465      92,285
00356.M2TS      4635 (0x121B)   0x90            PGS             spa (Spanish)           5124.995                25                      16,160,384      93,756
00356.M2TS      4636 (0x121C)   0x90            PGS             swe (Swedish)           5124.995                24                      15,609,848      90,700
00356.M2TS      4637 (0x121D)   0x90            PGS             tha (Thai)              5124.995                26                      16,411,789      95,118
00356.M2TS      4638 (0x121E)   0x90            PGS             tur (Turkish)           5124.995                25                      16,227,034      94,001
QUICK SUMMARY:
Disc Title: The.Marine.6.Close.Quarters.2018.COMPLETE.BLURAY-PCH
Disc Size: 24,623,179,504 bytes
Protection: AACS
Playlist: 00003.MPLS
Size: 22,760,128,512 bytes
Length: 1:25:25.120
Total Bitrate: 35.53 Mbps
Video: MPEG-4 AVC Video / 24932 kbps / 1080p / 23.976 fps / 16:9 / High Profile 4.1
Audio: English / DTS-HD Master Audio / 5.1 / 48 kHz / 2293 kbps / 16-bit (DTS Core: 5.1 / 48 kHz / 1509 kbps / 16-bit)
Audio: French / DTS-HD Master Audio / 5.1 / 48 kHz / 2291 kbps / 16-bit (DTS Core: 5.1 / 48 kHz / 1509 kbps / 16-bit)
Audio: German / DTS-HD Master Audio / 5.1 / 48 kHz / 2246 kbps / 16-bit (DTS Core: 5.1 / 48 kHz / 1509 kbps / 16-bit)
Audio: Russian / Dolby Digital Audio / 5.1 / 48 kHz / 640 kbps
* Subtitle: English / 33.069 kbps
* Subtitle: English / 25.239 kbps
Subtitle: English / 33.038 kbps
Subtitle: English / 25.246 kbps
Subtitle: Arabic / 14.841 kbps
Subtitle: Chinese / 23.572 kbps
Subtitle: Croatian / 21.568 kbps
Subtitle: Czech / 23.308 kbps
Subtitle: Danish / 24.795 kbps
Subtitle: Dutch / 25.088 kbps
Subtitle: Estonian / 25.648 kbps
Subtitle: Finnish / 24.994 kbps
Subtitle: French / 25.231 kbps
Subtitle: German / 28.802 kbps
Subtitle: Greek / 26.221 kbps
Subtitle: Hungarian / 25.498 kbps
Subtitle: Italian / 26.454 kbps
Subtitle: Korean / 20.786 kbps
Subtitle: Latvian / 23.728 kbps
Subtitle: Lithuanian / 23.756 kbps
Subtitle: Norwegian / 23.060 kbps
Subtitle: Polish / 22.534 kbps
Subtitle: Portuguese / 24.567 kbps
Subtitle: Portuguese / 25.534 kbps
Subtitle: Romanian / 23.877 kbps
Subtitle: Russian / 25.223 kbps
Subtitle: Spanish / 24.818 kbps
Subtitle: Spanish / 25.225 kbps
Subtitle: Swedish / 24.366 kbps
Subtitle: Thai / 25.618 kbps
Subtitle: Turkish / 25.329 kbps
********************
PLAYLIST: 00450.MPLS
********************
Total   Video
Title                                                           Codec   Length  Movie Size      Disc Size       Bitrate Bitrate Main Audio Track                          Secondary Audio Track
-----                                                           ------  ------- --------------  --------------  ------- ------- ------------------                        ---------------------
00450.MPLS                                                      AVC     0:05:06 641,421,312     24,623,179,504  16.76   15.00   DD AC3 2.0 192Kbps
DISC INFO:
Disc Title:     The.Marine.6.Close.Quarters.2018.COMPLETE.BLURAY-PCH
Disc Size:      24,623,179,504 bytes
Protection:     AACS
Extras:         BD-Java
BDInfo:         0.7.4.0
PLAYLIST REPORT:
Name:                   00450.MPLS
Length:                 0:05:06.205 (h:m:s.ms)
Size:                   641,421,312 bytes
Total Bitrate:          16.76 Mbps
VIDEO:
Codec                   Bitrate             Deion
-----                   -------             -----------
MPEG-4 AVC Video        15000 kbps          1080i / 29.970 fps / 16:9 / High Profile 4.1
AUDIO:
Codec                           Language        Bitrate         Deion
-----                           --------        -------         -----------
Dolby Digital Audio             English         192 kbps        2.0 / 48 kHz /   192 kbps
SUBTITLES:
Codec                           Language        Bitrate         Deion
-----                           --------        -------         -----------
Presentation Graphics           English         66.757 kbps
Presentation Graphics           English         64.958 kbps
Presentation Graphics           Chinese         50.432 kbps
Presentation Graphics           Dutch           55.768 kbps
Presentation Graphics           German          63.954 kbps
Presentation Graphics           Italian         58.809 kbps
Presentation Graphics           Korean          49.793 kbps
Presentation Graphics           Portuguese      59.742 kbps
Presentation Graphics           Spanish         61.462 kbps
Presentation Graphics           Spanish         60.474 kbps
Presentation Graphics           Thai            63.984 kbps
Presentation Graphics           French          63.313 kbps
FILES:
Name            Time In         Length          Size            Total Bitrate
----            -------         ------          ----            -------------
00357.M2TS      0:00:00.000     0:05:06.205     641,421,312     16,758
CHAPTERS:
Number          Time In         Length          Avg Video Rate  Max 1-Sec Rate  Max 1-Sec Time  Max 5-Sec Rate  Max 5-Sec Time  Max 10Sec Rate  Max 10Sec Time  Avg Frame Size  Max Frame Size  Max Frame Time
------          -------         ------          --------------  --------------  --------------  --------------  --------------  --------------  --------------  --------------  --------------  --------------
1               0:00:00.000     0:05:06.205     15,000 kbps     32,673 kbps     00:01:17.077    30,259 kbps     00:00:28.461    29,910 kbps     00:01:40.433    62,561 bytes    526,875 bytes   00:00:31.765
STREAM DIAGNOSTICS:
File            PID             Type            Codec           Language                Seconds                 Bitrate                 Bytes           Packets
----            ---             ----            -----           --------                --------------          --------------          -------------   -----
00357.M2TS      4113 (0x1011)   0x1B            AVC                                     306.139                 15,003                  574,125,150     3,125,558
00357.M2TS      4352 (0x1100)   0x81            AC3             eng (English)           306.139                 192                     7,348,992       47,845
00357.M2TS      4608 (0x1200)   0x90            PGS             eng (English)           306.139                 67                      2,555,177       14,529
00357.M2TS      4609 (0x1201)   0x90            PGS             eng (English)           306.139                 65                      2,486,302       14,114
00357.M2TS      4610 (0x1202)   0x90            PGS             zho (Chinese)           306.139                 50                      1,930,324       11,117
00357.M2TS      4611 (0x1203)   0x90            PGS             nld (Dutch)             306.139                 56                      2,134,563       12,209
00357.M2TS      4612 (0x1204)   0x90            PGS             deu (German)            306.139                 64                      2,447,875       13,914
00357.M2TS      4613 (0x1205)   0x90            PGS             ita (Italian)           306.139                 59                      2,250,953       12,836
00357.M2TS      4614 (0x1206)   0x90            PGS             kor (Korean)            306.139                 50                      1,905,881       10,991
00357.M2TS      4615 (0x1207)   0x90            PGS             por (Portuguese)        306.139                 60                      2,286,658       13,040
00357.M2TS      4616 (0x1208)   0x90            PGS             spa (Spanish)           306.139                 61                      2,352,495       13,394
00357.M2TS      4617 (0x1209)   0x90            PGS             spa (Spanish)           306.139                 60                      2,314,686       13,186
00357.M2TS      4618 (0x120A)   0x90            PGS             tha (Thai)              306.139                 64                      2,449,021       13,940
00357.M2TS      4619 (0x120B)   0x90            PGS             fra (French)            306.139                 63                      2,423,335       13,780
QUICK SUMMARY:
Disc Title: The.Marine.6.Close.Quarters.2018.COMPLETE.BLURAY-PCH
Disc Size: 24,623,179,504 bytes
Protection: AACS
Playlist: 00450.MPLS
Size: 641,421,312 bytes
Length: 0:05:06.205
Total Bitrate: 16.76 Mbps
Video: MPEG-4 AVC Video / 15000 kbps / 1080i / 29.970 fps / 16:9 / High Profile 4.1
Audio: English / Dolby Digital Audio / 2.0 / 48 kHz / 192 kbps
Subtitle: English / 66.757 kbps
Subtitle: English / 64.958 kbps
Subtitle: Chinese / 50.432 kbps
Subtitle: Dutch / 55.768 kbps
Subtitle: German / 63.954 kbps
Subtitle: Italian / 58.809 kbps
Subtitle: Korean / 49.793 kbps
Subtitle: Portuguese / 59.742 kbps
Subtitle: Spanish / 61.462 kbps
Subtitle: Spanish / 60.474 kbps
Subtitle: Thai / 63.984 kbps
Subtitle: French / 63.313 kbps
********************
PLAYLIST: 00102.MPLS
********************
Total   Video
Title                                                           Codec   Length  Movie Size      Disc Size       Bitrate Bitrate Main Audio Track                          Secondary Audio Track
-----                                                           ------  ------- --------------  --------------  ------- ------- ------------------                        ---------------------
00102.MPLS                                                      AVC     0:04:47 323,100,672     24,623,179,504  9.00    8.55
DISC INFO:
Disc Title:     The.Marine.6.Close.Quarters.2018.COMPLETE.BLURAY-PCH
Disc Size:      24,623,179,504 bytes
Protection:     AACS
Extras:         BD-Java
BDInfo:         0.7.4.0
PLAYLIST REPORT:
Name:                   00102.MPLS
Length:                 0:04:47.245 (h:m:s.ms)
Size:                   323,100,672 bytes
Total Bitrate:          9.00 Mbps
VIDEO:
Codec                   Bitrate             Deion
-----                   -------             -----------
MPEG-4 AVC Video        8554 kbps           1080p / 23.976 fps / 16:9 / High Profile 4.1
FILES:
Name            Time In         Length          Size            Total Bitrate
----            -------         ------          ----            -------------
00102.M2TS      0:00:00.000     0:04:47.245     323,100,672     8,999
CHAPTERS:
Number          Time In         Length          Avg Video Rate  Max 1-Sec Rate  Max 1-Sec Time  Max 5-Sec Rate  Max 5-Sec Time  Max 10Sec Rate  Max 10Sec Time  Avg Frame Size  Max Frame Size  Max Frame Time
------          -------         ------          --------------  --------------  --------------  --------------  --------------  --------------  --------------  --------------  --------------  --------------
1               0:00:00.000     0:00:15.015     29,334 kbps     32,278 kbps     00:00:14.014    29,429 kbps     00:00:10.010    29,266 kbps     00:00:05.005    152,510 bytes   660,356 bytes   00:00:15.015
2               0:00:15.015     0:00:15.015     6,333 kbps      11,282 kbps     00:00:25.692    6,830 kbps      00:00:24.983    6,775 kbps      00:00:19.978    33,019 bytes    695,344 bytes   00:00:26.693
3               0:00:30.030     0:00:15.015     95 kbps         247 kbps        00:00:44.044    112 kbps        00:00:40.040    99 kbps         00:00:35.035    494 bytes       21,325 bytes    00:00:45.045
4               0:00:45.045     0:00:15.015     576 kbps        5,409 kbps      00:00:59.059    1,247 kbps      00:00:55.055    744 kbps        00:00:50.050    3,004 bytes     651,150 bytes   00:01:00.060
5               0:01:00.060     0:00:15.015     13,269 kbps     19,496 kbps     00:01:08.193    13,965 kbps     00:01:05.857    13,809 kbps     00:01:04.731    69,178 bytes    776,639 bytes   00:01:10.862
6               0:01:15.075     0:00:15.015     13,271 kbps     18,736 kbps     00:01:27.504    13,926 kbps     00:01:24.626    13,639 kbps     00:01:19.621    69,187 bytes    724,519 bytes   00:01:29.214
7               0:01:30.090     0:03:17.155     7,674 kbps      13,053 kbps     00:01:39.140    8,018 kbps      00:01:35.303    7,863 kbps      00:02:08.461    40,027 bytes    783,052 bytes   00:01:40.100
STREAM DIAGNOSTICS:
File            PID             Type            Codec           Language                Seconds                 Bitrate                 Bytes           Packets
----            ---             ----            -----           --------                --------------          --------------          -------------   -----
00102.M2TS      4113 (0x1011)   0x1B            AVC                                     287.162                 8,557                   307,141,655     1,673,165
QUICK SUMMARY:
Disc Title: The.Marine.6.Close.Quarters.2018.COMPLETE.BLURAY-PCH
Disc Size: 24,623,179,504 bytes
Protection: AACS
Playlist: 00102.MPLS
Size: 323,100,672 bytes
Length: 0:04:47.245
Total Bitrate: 9.00 Mbps
Video: MPEG-4 AVC Video / 8554 kbps / 1080p / 23.976 fps / 16:9 / High Profile 4.1
********************
PLAYLIST: 00451.MPLS
********************
Total   Video
Title                                                           Codec   Length  Movie Size      Disc Size       Bitrate Bitrate Main Audio Track                          Secondary Audio Track
-----                                                           ------  ------- --------------  --------------  ------- ------- ------------------                        ---------------------
00451.MPLS                                                      AVC     0:04:33 570,150,912     24,623,179,504  16.70   15.00   DD AC3 2.0 192Kbps
[code]
DISC INFO:
Disc Title: The.Marine.6.Close.Quarters.2018.COMPLETE.BLURAY-PCH
Disc Size: 24,623,179,504 bytes
Protection: AACS
Extras: BD-Java
BDInfo: 0.7.4.0
PLAYLIST REPORT:
Name: 00451.MPLS
Length: 0:04:33.072 (h:m:s.ms)
Size: 570,150,912 bytes
Total Bitrate: 16.70 Mbps
VIDEO:
Codec Bitrate Deion
----- ------- -----------
MPEG-4 AVC Video 15000 kbps 1080i / 29.970 fps / 16:9 / High Profile 4.1
AUDIO:
Codec Language Bitrate Deion
----- -------- ------- -----------
Dolby Digital Audio English 192 kbps 2.0 / 48 kHz / 192 kbps
SUBTITLES:
Codec Language Bitrate Deion
----- -------- ------- -----------
Presentation Graphics English 63.707 kbps
Presentation Graphics English 58.611 kbps
Presentation Graphics Chinese 50.942 kbps
Presentation Graphics Dutch 50.206 kbps
Presentation Graphics German 55.917 kbps
Presentation Graphics Italian 56.177 kbps
Presentation Graphics Korean 48.587 kbps
Presentation Graphics Portuguese 55.901 kbps
Presentation Graphics Spanish 55.234 kbps
Presentation Graphics Spanish 54.733 kbps
Presentation Graphics Thai 60.719 kbps
Presentation Graphics French 57.468 kbps
FILES:
Name Time In Length Size Total Bitrate
---- ------- ------ ---- -------------
00358.M2TS 0:00:00.000 0:04:33.072 570,150,912 16,703
CHAPTERS:
Number Time In Length Avg Video Rate Max 1-Sec Rate Max 1-Sec Time Max 5-Sec Rate Max 5-Sec Time Max 10Sec Rate Max 10Sec Time Avg Frame Size Max Frame Size Max Frame Time
------ ------- ------ -------------- -------------- -------------- -------------- -------------- -------------- -------------- -------------- -------------- --------------
1 0:00:00.000 0:04:33.072 15,000 kbps 32,509 kbps 00:01:00.493 30,091 kbps 00:00:25.325 29,286 kbps 00:00:51.484 62,562 bytes 527,778 bytes 00:00:26.226
STREAM DIAGNOSTICS:
File PID Type Codec Language Seconds Bitrate Bytes Packets
---- --- ---- ----- --------
[rubit-tracker.ru].t31733.torrent 
Torrent: Registered [ 2018-11-19 10:12 ] · 3446DB85529C4C05A884984054B4350B55218EFB Смотреть онлайн

Download .torrent

Download

72 KB

Status: * not checked
Completed: 0 times
Size: 22.93 GB
Поделиться:
terms.php
Похожие темы
[Profile] [PM]
Display posts:    
Reply to topic

Current time is: 19-May 17:18

All times are UTC ± 0



You cannot post new topics in this forum
You cannot reply to topics in this forum
You cannot edit your posts in this forum
You cannot delete your posts in this forum
You cannot vote in polls in this forum
You cannot attach files in this forum
You can download files in this forum