*** Уважаемые пользователи нашего трекера! Мы рады видеть Вас на нашем обновленном сайте! ***

Навигация по Торрент раздачам

Фильмы

Сериалы

Док.Фильмы

Мультики

Музыка

Игры

Софт

Спорт

Аниме

Книги

Графика

Мобильные

Пришельцы в доме / Luis and His Friends from Outer Space / Luis & the Aliens (2018) WEB-DL 1080р | iTunes

Ответить на тему
 
Автор Сообщение

admin ®

Пол: Мужской

Стаж: 1 год 10 месяцев

Сообщений: 4255



Награды: 3 (Подробнее)

Авторитетный релизер (Количество: 1) Меценат (Количество: 1) Помощь трекеру (Количество: 1)

Создавать темы 08-Ноя-2018 05:47

[Цитировать]


Пришельцы в доме / Luis and His Friends from Outer Space / Luis & the Aliens
Страна: Германия Люксембург Дания
Производство: Ulysses Filmproduktion, A. Film
Год выпуска: 2018
Жанр: мультфильм, фантастика, комедия, приключения, семейный
Продолжительность: 01:25:34
Режиссеры: Кристоф Лауэнштайн, Вольфганг Лауэнштайн, Шон МакКормак
Авторы сценария: Вольфганг Лауэнштайн, Кристоф Лауэнштайн, Юрген Вольф
В ролях: Каллум Малони, Дермот Магеннис, Йен Коппингер, Пол Тайлак, Люси Кэролан, Эйн Дэйли, Эйлин Митен, Саймон Тоул, Данна Дэвис
Описание: У 12-летнего Луиса нет друзей, а у его отца постоянно не хватает на него времени. Тот страстно увлечен уфологией и даже не догадывается, что те, кого он так жаждет найти, находятся прямо у него перед носом. Луис становится единственным свидетелем аварийной посадки трех чудаковатых инопланетян рядом с их домом. Троица пришельцев быстро находит общий язык с мальчиком. Они ведут себя точь-в-точь как озорные подростки, и обладают к тому же совершенно удивительной способностью — перевоплощаться в любое живое существо. Луис еще никогда так не веселился, как рядом с ними. Но он быстро понимает, что если взрослые узнают о его тайне, ничем хорошим это не закончится. Поэтому он решает помочь им починить тарелку и улететь вместе с ними…

Перевод: Профессиональный (полное дублирование) | iTunes
Субтитры: нет-Качество: WEB-DL 1080р
Формат: МКV
Видео кодек: AVC
Аудио кодек: АС3
Видео: 1920x1040 (1.85:1), 24.000 fps, MPEG-4 AVC ~5 067 kbps avg
Аудио: 48.0 kHz, AC3 Dolby Digital, 3/2 (L,C,R,l,r) + LFE ch, ~384 kbps
Дата премьеры (мир): 2 марта 2018
Дата премьеры (РФ): 4 октября 2018, «Наше Кино»

Media Info

General
Unique ID : 177885420367948955277837069155861737381 (0x85D37C5BCB14D7A990648EBBC1A72FA5)
Complete name : PRISHELCY_V_DOME_2018_WEB_DL_(1080p).mkv
Format : Matroska
Format version : Version 4 / Version 2
File size : 3.32 GiB
Duration : 1 h 25 min
Overall bit rate : 5 562 kb/s
Movie name : PRISHELCY_V_DOME_2018_WEB_DL_1080p_BLUEBIRD
Encoded date : UTC 2018-11-07 19:21:55
Writing application : mkvmerge v6.9.1 ('Blue Panther') 32bit built on Apr 18 2014 18:15:44
Writing library : libebml v1.3.0 + libmatroska v1.4.1
Video
ID : 1
Format : AVC
Format/Info : Advanced Video Codec
Format profile : High@L4
Format settings, CABAC : Yes
Format settings, RefFrames : 4 frames
Codec ID : V_MPEG4/ISO/AVC
Duration : 1 h 25 min
Bit rate : 5 067 kb/s
Width : 1 920 pixels
Height : 1 040 pixels
Display aspect ratio : 1.85:1
Frame rate mode : Constant
Frame rate : 24.000 FPS
Color space : YUV
Chroma subsampling : 4:2:0
Bit depth : 8 bits
Scan type : Progressive
Bits/(Pixel*Frame) : 0.106
Stream size : 3.03 GiB (91%)
Title : PRISHELCY_V_DOME_2018_WEB_DL_1080p_BLUEBIRD
Language : English
Default : Yes
Forced : No
Color range : Limited
Color primaries : BT.709
Transfer characteristics : BT.709
Matrix coefficients : BT.709
Audio
ID : 2
Format : AC-3
Format/Info : Audio Coding 3
Format settings, Endianness : Big
Codec ID : A_AC3
Duration : 1 h 25 min
Bit rate mode : Constant
Bit rate : 384 kb/s
Channel(s) : 6 channels
Channel positions : Front: L C R, Side: L R, LFE
Sampling rate : 48.0 kHz
Frame rate : 31.250 FPS (1536 SPF)
Bit depth : 16 bits
Compression mode : Lossy
Stream size : 235 MiB (7%)
Title : [DUB] DD 5.1 @ 384 kbps (iTunes)
Language : Russian
Service kind : Complete Main
Default : Yes
Forced : No
Menu
00:00:00.000 : en:Глава 1
00:07:50.291 : en:Глава 2
00:15:41.957 : en:Глава 3
00:23:48.790 : en:Глава 4
00:29:10.790 : en:Глава 5
00:34:52.706 : en:Глава 6
00:42:35.664 : en:Глава 7
00:48:18.205 : en:Глава 8
00:53:51.413 : en:Глава 9
00:59:58.079 : en:Глава 10
01:06:02.662 : en:Глава 11
01:13:56.537 : en:Глава 12

Скриншоты

[Профиль] [ЛС]
Показать сообщения:    
Ответить на тему

Текущее время: 25-Мар 08:11

Часовой пояс: UTC ± 0



Вы не можете начинать темы
Вы не можете отвечать на сообщения
Вы не можете редактировать свои сообщения
Вы не можете удалять свои сообщения
Вы не можете голосовать в опросах
Вы не можете прикреплять файлы к сообщениям
Вы не можете скачивать файлы