*** Уважаемые пользователи нашего трекера! Мы рады видеть Вас на нашем обновленном сайте! ***

Навигация по Торрент раздачам

Фильмы

Сериалы

Док.Фильмы

Мультики

Музыка

Игры

Софт

Спорт

Аниме

Книги

Графика

Мобильные

Пираты Карибского моря: Мертвецы не рассказывают сказки / Pirates of the Caribbean: Dead Men Tell No Tales (2017) DVD9 | Лицензия

Ответить на тему
Статистика раздачи
Размер:  6,02 GB   |    Зарегистрирован:  7 месяцев 4 дня   |    Скачан:  0 раз

Полного источника не было: Никогда

 
   
 
 
 
Автор Сообщение

Славик ®

Пол: Мужской

Стаж: 1 год 8 месяцев

Сообщений: 3587



Награды: 4 (Подробнее)

Активный релизер (10 релизов) (Количество: 1) Активный релизер (100 релизов) (Количество: 1) Активный релизер (150 релизов) (Количество: 1)

Создавать темы 20-Авг-2018 10:12

[Цитировать]

Информация о фильме
Название: Пираты Карибского моря: Мертвецы не рассказывают сказки
Оригинальное название: Pirates of the Caribbean: Dead Men Tell No Tales
Год выхода: 2017
Жанр: фэнтези, боевик, комедия, приключения
Режиссер: Хоаким Роннинг, Эспен Сандберг
В ролях: Джонни Депп, Хавьер Бардем, Джеффри Раш, Брентон Туэйтс, Кая Скоделарио, Кевин МакНэлли, Голшифте Фарахани, Дэвид Уэнэм, Стивен Грэм, Энгус Барнетт
О фильме:
Исчерпавший свою удачу капитан Джек Воробей обнаруживает, что за ним охотится его старый неприятель, ужасный капитан Салазар и его призрачные пираты. Они только что сбежали из Дьявольского треугольника и намерены уничтожить всех пиратов, включая Джека. Поможет спастись лишь могущественный артефакт — трезубец Посейдона, который дарует своему обладателю полный контроль над морями.

Страна: США
Студия: Infinitum Nihil Production, Jerry Bruckheimer Films, Walt Disney Pictures
Продолжительность: 123 мин. / 02:03
Перевод: полное дублирование
Файл
Кодек: MPEG2
Качество: DVD9 R5
Видео: PAL 16:9 (720x576@1024x576) VBR 5386 Kbps, 25.000 fps
Аудио 1: Dolby AC3, 6 ch, 48.0 KHz, 384 Kbps (русский, английский)
Аудио 2: Dolby AC3, 2 ch, 48.0 KHz, 192 Kbps (английский описательный)
Субтитры: русские, английские

MediaInfo

Общее
Полное имя : Pirates of the Caribbean. Dead Men Tell No Tales (2017) DVD9 R5VIDEO_TSVTS_07_3.VOB
Формат : MPEG-PS
Размер файла : 1024 Мбайт
Продолжительность : 22 м. 6 с.
Режим общего битрейта : Переменный
Общий поток : 6474 Кбит/сек
Видео
Идентификатор : 224 (0xE0)
Формат : MPEG Video
Версия формата : Version 2
Профиль формата : Main@Main
Настройки формата : CustomMatrix / BVOP
Параметр BVOP формата : Да
Параметр матрицы формата : Выборочная
Параметр GOP формата : Variable
Продолжительность : 22 м. 6 с.
Вид битрейта : Переменный
Битрейт : 5386 Кбит/сек
Максимальный битрейт : 9800 Кбит/сек
Ширина : 720 пикселей
Высота : 576 пикселей
Соотношение сторон : 16:9
Частота кадров : 25,000 кадров/сек
Стандарт вещания : Component
Цветовое пространство : YUV
Субдискретизация насыщенности : 4:2:0
Битовая глубина : 8 бит
Тип развёртки : Прогрессивная
Порядок развёртки : Верхнее поле первое
Метод сжатия : С потерями
Бит/(Пиксели*Кадры) : 0.519
Временной код первого кадра : 01:45:11:07
Оригинал временного кода : Group of pictures header
Размер потока : 852 Мбайт (83%)
Основные цвета : BT.601 PAL
Характеристики трансфера : BT.470 System B, BT.470 System G
Коэффициенты матрицы : BT.470 System B, BT.470 System G
Аудио #1
Идентификатор : 189 (0xBD)-128 (0x80)
Формат : AC-3
Формат/Информация : Audio Coding 3
Параметр Endianness формата : Big
Режим смешивания : DVD-Video
Продолжительность : 22 м. 6 с.
Вид битрейта : Постоянный
Битрейт : 384 Кбит/сек
Каналы : 6 каналов
Расположение каналов : Front: L C R, Side: L R, LFE
Частота : 48,0 КГц
Частота кадров : 31,250 кадров/сек (1536 SPF)
Битовая глубина : 16 бит
Метод сжатия : С потерями
Задержка видео : -360 мс.
Размер потока : 60,7 Мбайт (6%)
Аудио #2
Идентификатор : 189 (0xBD)-129 (0x81)
Формат : AC-3
Формат/Информация : Audio Coding 3
Параметр Endianness формата : Big
Режим смешивания : DVD-Video
Продолжительность : 22 м. 6 с.
Вид битрейта : Постоянный
Битрейт : 192 Кбит/сек
Каналы : 2 канала
Расположение каналов : Front: L R
Частота : 48,0 КГц
Частота кадров : 31,250 кадров/сек (1536 SPF)
Битовая глубина : 16 бит
Метод сжатия : С потерями
Задержка видео : -328 мс.
Размер потока : 30,4 Мбайт (3%)
Аудио #3
Идентификатор : 189 (0xBD)-130 (0x82)
Формат : AC-3
Формат/Информация : Audio Coding 3
Параметр Endianness формата : Big
Режим смешивания : DVD-Video
Продолжительность : 22 м. 6 с.
Вид битрейта : Постоянный
Битрейт : 384 Кбит/сек
Каналы : 6 каналов
Расположение каналов : Front: L C R, Side: L R, LFE
Частота : 48,0 КГц
Частота кадров : 31,250 кадров/сек (1536 SPF)
Битовая глубина : 16 бит
Метод сжатия : С потерями
Задержка видео : -392 мс.
Размер потока : 60,7 Мбайт (6%)
Текст #1
Идентификатор : 189 (0xBD)-32 (0x20)
Формат : RLE
Формат/Информация : Run-length encoding
Режим смешивания : DVD-Video
Задержка видео : 40 мс.
Текст #2
Идентификатор : 189 (0xBD)-33 (0x21)
Формат : RLE
Формат/Информация : Run-length encoding
Режим смешивания : DVD-Video
Задержка видео : 40 мс.
Текст #3
Идентификатор : 189 (0xBD)-34 (0x22)
Формат : RLE
Формат/Информация : Run-length encoding
Режим смешивания : DVD-Video
Задержка видео : 40 мс.
Текст #4
Идентификатор : 189 (0xBD)-35 (0x23)
Формат : RLE
Формат/Информация : Run-length encoding
Режим смешивания : DVD-Video
Задержка видео : 40 мс.
Текст #5
Идентификатор : 189 (0xBD)-36 (0x24)
Формат : RLE
Формат/Информация : Run-length encoding
Режим смешивания : DVD-Video
Текст #6
Идентификатор : 189 (0xBD)-37 (0x25)
Формат : RLE
Формат/Информация : Run-length encoding
Режим смешивания : DVD-Video
Меню

Скриншоты


[rubit-tracker.ru].t30596.torrent 
Торрент: Зарегистрирован [ 2018-08-20 10:12 ] · 63F90A535631953F5DAF6925348049EB226F34E7 Смотреть онлайн

Скачать .torrent

Скачать

33 KB

Статус: * не проверено
Скачан: 0 раз
Размер: 6,02 GB
Поделиться:
terms.php
Похожие темы
[Профиль] [ЛС]
Показать сообщения:    
Ответить на тему

Текущее время: 25-Мар 08:10

Часовой пояс: UTC ± 0



Вы не можете начинать темы
Вы не можете отвечать на сообщения
Вы не можете редактировать свои сообщения
Вы не можете удалять свои сообщения
Вы не можете голосовать в опросах
Вы не можете прикреплять файлы к сообщениям
Вы можете скачивать файлы