*** Уважаемые пользователи нашего трекера! Мы рады видеть Вас на нашем обновленном сайте! ***

Навигация по Торрент раздачам

Фильмы

Сериалы

Док.Фильмы

Мультики

Музыка

Игры

Софт

Спорт

Аниме

Книги

Графика

Мобильные

Танковый Биатлон 2017.08.12 [2017, Военно-Спортивное Шоу, HDTV 1080i]

Ответить на тему
 
Автор Сообщение

admin ®

Пол: Мужской

Стаж: 1 год 10 месяцев

Сообщений: 4255



Награды: 3 (Подробнее)

Авторитетный релизер (Количество: 1) Меценат (Количество: 1) Помощь трекеру (Количество: 1)

Создавать темы 25-Сен-2017 19:30

[Цитировать]

Танковый Биатлон 2017.08.12
Год выпуска: 2017
Страна: Россия
Студия: Россия 1 HD | ООО "Телеиндустрия"
Жанр: Военно-Спортивное Шоу
Продолжительность: 01:14:00
Перевод: Не требуется
Ведущий: Дмитрий Губерниев
Описание: Это шоу можно назвать чемпионатом мира по танковому биатлону. Беспрецедентные учения-соревнования, идея организации которых принадлежит министру обороны России Сергею Шойгу, привлекли внимание всего мира. 5 сезон будет еще более представительным. Свое участие в "Танковом биатлоне" подтвердили 13 стран: Россия, Ангола, Армения, Венесуэла, Индия, Казахстан, Киргизия, Китай, Кувейт, Монголия, Никарагуа, Сербия, Таджикистан.
Тип релиза: HDTV 1080i
Контейнер: TS
Видео: H264; 1920x1080 (16:9); 25.000 fps; ~6 541 kb/s
Аудио: MPEG Audio Version 1 Layer 2, 48000Hz, 2 channels stereo 192 Кбит/сек

MediaInfo

General
ID : 1 (0x1)
Complete name : F:\111---Смеяться разрешается\Танковый Биатлон 2017.08.12.ts
Format : MPEG-TS
File size : 3.69 GiB
Duration : 1 h 14 min
Overall bit rate mode : Variable
Overall bit rate : 7 085 kb/s
Video
ID : 2292 (0x8F4)
Menu ID : 2291 (0x8F3)
Format : AVC
Format/Info : Advanced Video Codec
Format profile : High@L4
Format settings, CABAC : Yes
Format settings, ReFrames : 4 frames
Codec ID : 27
Duration : 1 h 14 min
Bit rate : 6 541 kb/s
Width : 1 920 pixels
Height : 1 080 pixels
Display aspect ratio : 16:9
Frame rate : 25.000 FPS
Standard : Component
Color space : YUV
Chroma subsampling : 4:2:0
Bit depth : 8 bits
Scan type : Interlaced
Scan type, store method : Separated fields
Scan order : Top Field First
Bits/(Pixel*Frame) : 0.126
Stream size : 3.41 GiB (92%)
Color range : Limited
Color primaries : BT.709
Transfer characteristics : BT.709
Matrix coefficients : BT.709
Audio
ID : 2295 (0x8F7)
Menu ID : 2291 (0x8F3)
Format : MPEG Audio
Format version : Version 1
Format profile : Layer 2
Codec ID : 3
Duration : 1 h 14 min
Bit rate mode : Constant
Bit rate : 192 kb/s
Channel(s) : 2 channels
Sampling rate : 48.0 kHz
Compression mode : Lossy
Stream size : 102 MiB (3%)
Language : Russian

Скриншоты

[Профиль] [ЛС]
Показать сообщения:    
Ответить на тему

Текущее время: 27-Мар 01:01

Часовой пояс: UTC ± 0



Вы не можете начинать темы
Вы не можете отвечать на сообщения
Вы не можете редактировать свои сообщения
Вы не можете удалять свои сообщения
Вы не можете голосовать в опросах
Вы не можете прикреплять файлы к сообщениям
Вы не можете скачивать файлы