*** Уважаемые пользователи нашего трекера! Мы рады видеть Вас на нашем обновленном сайте! ***

Навигация по Торрент раздачам

Фильмы

Сериалы

Док.Фильмы

Мультики

Музыка

Игры

Софт

Спорт

Аниме

Книги

Графика

Мобильные

Анти-социальный / Anti-Social (2015) WEB-DL [H.264/720p-LQ] [EN]

Ответить на тему
Статистика раздачи
Размер:  3,51 GB   |    Зарегистрирован:  3 года 6 месяцев   |    Скачан:  3 раза
Сидов:  2  [  0 KB/s  ]   Подробная статистика пиров
 
   
 
 
 
Автор Сообщение

Dream ®

Пол: Мужской

Стаж: 1 год 9 месяцев

Сообщений: 2157



Награды: Нет

Создавать темы 14-Сен-2015 20:57

[Цитировать]

Анти-социальный / Anti-Social (2015) WEB-DL [H.264/720p-LQ] [EN]


Производство: Венгрия, Великобритания, RST Pictures, JRSM Films, Origo Film Group
Жанр: криминал
Режиссер: Рег Тревисс
Актеры: Грегг Салкин, Меган Маркл, Джош Майерс, Кристиан Беркель, Ричи Кэмпелл, Эндрю Шим, Софи Колкухоун, Кэролайн Форд, Аймен Хамдуши, Майкл Марис
Описание:
В центре событий нам предстоит увидеть историю о жизненном выборе двух братьев. Маркус и Ди две абсолютные противоположности!
И вот наступает день, когда Ди удается найти свое место на арт-сцене, он даже смог пробиться в высшие круги, Маркус же продолжает заниматься воровством с еще большим стремлением, ведь таким образом он планирует заработать целое состояние. Но в стране наступает такое время, когда все должно стать на свои места, а наши братья будут вынуждены идти друг против друга. Но как же быть в таком случае, ведь у них семейные ценности ставятся на первое место!

Продолжительность: 01:56:02
Качество видео: WEB-DL [H.264/720p-LQ]
Перевод: Отсутствует
Язык озвучки: Английский
Видео: AVC, 1280x538 (2.40:1), 3865 kbps, 24 fps, 0,234 bpp
Аудио: английский / AC3 / 5.1 / 48 kHz / 384 kbps / 16 bit

MediaInfo

General
Unique ID
Complete name                            Anti-Social.720p.mkv
Format                                   : Matroska
Format version                           : Version 4 / Version 2
File size                                : 3.51 GiB
Duration                                 : 1h 56mn
Overall bit rate                         : 4 336 Kbps
Encoded date                             : UTC 2015-09-14 07:37:33
Writing application                      : mkvmerge v6.7.0 ('Back to the Ground') 64bit built on Jan  8 2014 15:10:52
Writing library                          : libebml v1.3.0 + libmatroska v1.4.1
Video
ID                                       : 1
Format                                   : AVC
Format/Info                              : Advanced Video Codec
Format profile                           : [url=mailto:Main@L3.1]Main@L3.1[/url]
Format settings, CABAC                   : No
Format settings, ReFrames                : 2 frames
Codec ID                                 : V_MPEG4/ISO/AVC
Duration                                 : 1h 56mn
Bit rate                                 : 3 865 Kbps
Width                                    : 1 280 pixels
Height                                   : 538 pixels
Display aspect ratio                     : 2.40:1
Frame rate                               : 24.000 fps
Color space                              : YUV
Chroma subsampling                       : 4:2:0
Bit depth                                : 8 bits
Scan type                                : Progressive
Bits/(Pixel*Frame)                       : 0.234
Stream size                              : 3.13 GiB (89%)
Language                                 : English
Default                                  : Yes
Forced                                   : No
Color primaries                          : BT.709-5, BT.1361, IEC 61966-2-4, SMPTE RP177
Transfer characteristics                 : BT.709-5, BT.1361
Matrix coefficients                      : BT.709-5, BT.1361, IEC 61966-2-4 709, SMPTE RP177
Audio
ID                                       : 2
Format                                   : AC-3
Format/Info                              : Audio Coding 3
Mode extension                           : CM (complete main)
Codec ID                                 : A_AC3
Duration                                 : 1h 56mn
Bit rate mode                            : Constant
Bit rate                                 : 384 Kbps
Channel(s)                               : 6 channels
Channel positions                        : Front: L C R, Side: L R, LFE
Sampling rate                            : 48.0 KHz
Bit depth                                : 16 bits
Compression mode                         : Lossy
Stream size                              : 319 MiB (9%)
Language                                 : English
Default                                  : Yes
Forced                                   : No
Menu
00:00:00.000                             : en:Chapter 1
00:08:15.000                             : en:Chapter 2
00:19:22.000                             : en:Chapter 3
00:28:34.000                             : en:Chapter 4
00:37:08.000                             : en:Chapter 5
00:46:37.000                             : en:Chapter 6
00:56:31.000                             : en:Chapter 7
01:06:29.000                             : en:Chapter 8
01:16:55.000                             : en:Chapter 9
01:28:01.000                             : en:Chapter 10
01:38:04.000                             : en:Chapter 11
01:48:18.000                             : en:Chapter 12
-

Скриншоты




[rubit-tracker.ru].t10029.torrent 
Торрент: Зарегистрирован [ 2015-09-14 20:58 ] · F3725848C6D97D8ACE3A68E633A09E57361152B2 Смотреть онлайн

Скачать .torrent

Скачать

18 KB

Статус: проверено
Скачан: 3 раз
Размер: 3,51 GB
Поделиться:
terms.php
Похожие темы
[Профиль] [ЛС]
Показать сообщения:    
Ответить на тему

Текущее время: 24-Мар 03:14

Часовой пояс: UTC ± 0



Вы не можете начинать темы
Вы не можете отвечать на сообщения
Вы не можете редактировать свои сообщения
Вы не можете удалять свои сообщения
Вы не можете голосовать в опросах
Вы не можете прикреплять файлы к сообщениям
Вы можете скачивать файлы