*** Уважаемые пользователи нашего трекера! Мы рады видеть Вас на нашем обновленном сайте! ***

Навигация по Торрент раздачам

Фильмы

Сериалы

Док.Фильмы

Мультики

Музыка

Игры

Софт

Спорт

Аниме

Книги

Графика

Мобильные

Заблудившиеся / Stray (2019) WEB-DLRip от Portablius | HDRezka Studio

Reply to topic
 
Author Message

Славик ®

Gender: Male

Longevity: 1 year 9 months

Posts: 3868



Награды: 4 (Подробнее)

Активный релизер (10 релизов) (Количество: 1) Активный релизер (100 релизов) (Количество: 1) Активный релизер (150 релизов) (Количество: 1)

Post 15-Apr-2019 06:30

[Quote]

Информация о фильме
Название: Заблудившиеся
Оригинальное название: Stray
Год выхода: 2019
Жанр: Фэнтези, боевик, триллер, криминал
Режиссер: Джо Силл
В ролях: Карен Фукухара, Кристин Вудс, Мияви, Росс Патридж, Такайо Фишер, Саки Миата, Боб Бэнкрофт, Киран Деол, Соня Джексон, Суфьен Эль Халиди
О фильме: Полицейский детектив Стелла Мерфи, работающая в убойном отделе, возвращается из отпуска и приступает к расследованию странного убийства женщины: ее обугленное тело было найдено на заброшенном складе, однако в окрестностях не обнаружили ни единого признака пожара. Вскоре выясняется, что жертва вела тихую жизнь вместе с дочерью-подростком Нори и пожилой матерью. Разговор с последней не приносит желаемого результата, поэтому Стелла решает объединиться с осиротевшей девушкой в попытке собрать больше информации. Ситуация осложняется, когда детектив узнает о том, что Нори обладает сверхъестественной силой.

Страна: США
Студия: Diablo Entertainment, Engineer
Продолжительность: 01:27:16
Перевод: Профессиональный (многоголосый, закадровый) | HDRezka Studio
Субтитры: нет
Файл
Кодек: XviD
Качество: WEB-DLRip
Видео: 704x288 (2.44:1), 23.976 fps, XviD build 73 ~973 kbps avg, 0.20 bit/pixel
Звук: 48 kHz, MPEG Layer 3, 2 ch, ~128.00 kbps avg

MediaInfo

General
Complete name : Stray.2019.WEB-DLRip.Portablius.avi
Format : AVI
Format/Info : Audio Video Interleave
File size : 693 MiB
Duration : 1 h 27 min
Overall bit rate : 1 111 kb/s
Writing application : VirtualDubMod 1.5.10.3 | www.virtualdub-fr.org || (build 2550/release)
Writing library : VirtualDubMod build 2550/release
Video
ID : 0
Format : MPEG-4 Visual
Format profile : Advanced Simple@L5
Format settings : BVOP1 / Custom Matrix
Format settings, BVOP : 1
Format settings, QPel : No
Format settings, GMC : No warppoints
Format settings, Matrix : Custom
Codec ID : XVID
Codec ID/Hint : XviD
Duration : 1 h 27 min
Bit rate : 974 kb/s
Width : 704 pixels
Height : 288 pixels
Display aspect ratio : 2.40:1
Frame rate : 23.976 (24000/1001) FPS
Color space : YUV
Chroma subsampling : 4:2:0
Bit depth : 8 bits
Scan type : Progressive
Compression mode : Lossy
Bits/(Pixel*Frame) : 0.200
Stream size : 608 MiB (88%)
Writing library : XviD 73
Audio
ID : 1
Format : MPEG Audio
Format version : Version 1
Format profile : Layer 3
Codec ID : 55
Codec ID/Hint : MP3
Duration : 1 h 27 min
Bit rate mode : Constant
Bit rate : 128 kb/s
Channel(s) : 2 channels
Sampling rate : 48.0 kHz
Frame rate : 41.667 FPS (1152 SPF)
Compression mode : Lossy
Stream size : 79.9 MiB (12%)
Alignment : Aligned on interleaves
Interleave, duration : 42 ms (1.00 video frame)
Interleave, preload duratio : 504 ms
Writing library : LAME3.99r
Encoding settings : -m s -V 4 -q 2 -lowpass 17 -b 128

Скриншоты

[Profile] [PM]
Display posts:    
Reply to topic

Current time is: 25-Apr 00:28

All times are UTC ± 0



You cannot post new topics in this forum
You cannot reply to topics in this forum
You cannot edit your posts in this forum
You cannot delete your posts in this forum
You cannot vote in polls in this forum
You cannot attach files in this forum
You cannot download files in this forum