*** Уважаемые пользователи нашего трекера! Мы рады видеть Вас на нашем обновленном сайте! ***

Навигация по Торрент раздачам

Фильмы

Сериалы

Док.Фильмы

Мультики

Музыка

Игры

Софт

Спорт

Аниме

Книги

Графика

Мобильные

Начни сначала / Second Act (2018) WEB-DLRip-AVC | HDRezka Studio

Reply to topic
DL-List and Torrent activity
Size:  746 MB   |    Registered:  2 months 5 days   |    Completed:  1 time

Seeder not seen: 3 days

 
   
 
 
 
Author Message

Славик ®

Gender: Male

Longevity: 1 year 10 months

Posts: 4075



Награды: 4 (Подробнее)

Активный релизер (10 релизов) (Количество: 1) Активный релизер (100 релизов) (Количество: 1) Активный релизер (150 релизов) (Количество: 1)

Post 14-Mar-2019 05:07

[Quote]

Информация о фильме
Название: Начни сначала
Оригинальное название: Second Act
Год выпуска: 2018
Жанр: Мелодрама, комедия
Режиссер: Питер Сигал
В ролях: Дженнифер Лопес, Ванесса Энн Хадженс, Леа Ремини, Трит Уильямс, Майло Вентимилья, Аннали Эшфорд, Шарлин Йи, Алан Айзенберг, Фредди Строма, Дэйв Фоли
О фильме :
Главная героиня, девушка по имени Майя, совсем отчаялась найти хорошую и оплачиваемую работу. Девушка перестала надеяться на чудо, когда неожиданно ей предложили работу в большой корпорации. Сейчас Майя должна доказать всем снобам, что она умна и креативна, и добьется успеха только благодаря своим знаниям и силе, и неважно, что у нее нет диплома с престижных университетов. Девушка считается, что не поздно начинать все с самого начала и идти к своей мечте, не имея при себе абсолютно ничего. Получится ли у Майи утереть нос завистникам и ненавистникам? Сможет ли девушка получит достойное место в обществе?

Выпущено: США, STX Entertainment
Продолжительность: 01:43:46
Перевод: Профессиональный (многоголосый, закадровый) | HDRezka Studio
Файл
Формат: MKV
Качество: WEB-DLRip-AVC
Видео: MPEG-4 AVC, 800x336, - 928 Кбит/с
Аудио: AAC-HE, 2 ch, - 76 Кбит/с
Субтитры: Английские

MI

Общее
Уникальный идентификатор : 248071966526544699940885774667941672664 (0xBAA0EC412F756C07A10E4D9DE3C3F6D8)
Полное имя : D:MOVIESSecond.Act.2018.WEB-DLRip-AVC.ExKinoRay.mkv
Формат : Matroska
Версия формата : Version 4 / Version 2
Размер файла : 746 Мбайт
Продолжительность : 1 ч. 43 м.
Общий поток : 1005 Кбит/сек
Дата кодирования : UTC 2019-03-11 18:52:56
Программа кодирования : mkvmerge v15.0.0 ('Duel with the Devil') 64-bit
Библиотека кодирования : libebml v1.3.5 + libmatroska v1.4.5
Видео
Идентификатор : 1
Формат : AVC
Формат/Информация : Advanced Video Codec
Профиль формата : High@L4.1
Параметр CABAC формата : Да
Параметр RefFrames формата : 12 кадров
Идентификатор кодека : V_MPEG4/ISO/AVC
Продолжительность : 1 ч. 43 м.
Битрейт : 928 Кбит/сек
Ширина : 800 пикселей
Высота : 336 пикселей
Соотношение сторон : 2,40:1
Режим частоты кадров : Постоянный
Частота кадров : 24,000 кадра/сек
Цветовое пространство : YUV
Субдискретизация насыщенности : 4:2:0
Битовая глубина : 8 бит
Тип развёртки : Прогрессивная
Бит/(Пиксели*Кадры) : 0.144
Размер потока : 688 Мбайт (92%)
Библиотека кодирования : x264 core 152 r2851kMod ba24899
Настройки программы : cabac=1 / ref=12 / deblock=1:-3:-3 / analyse=0x3:0x133 / me=umh / subme=10 / psy=1 / fade_compensate=0.00 / psy_rd=1.00:0.13 / mixed_ref=1 / me_range=32 / chroma_me=1 / trellis=2 / 8x8dct=1 / cqm=0 / deadzone=21,11 / fast_pskip=0 / chroma_qp_offset=-3 / threads=6 / lookahead_threads=1 / sliced_threads=0 / nr=0 / decimate=0 / interlaced=0 / bluray_compat=0 / constrained_intra=0 / bframes=11 / b_pyramid=2 / b_adapt=2 / b_bias=0 / direct=3 / weightb=1 / open_gop=0 / weightp=2 / keyint=240 / keyint_min=23 / scenecut=40 / intra_refresh=0 / rc_lookahead=40 / rc=2pass / mbtree=1 / bitrate=928 / ratetol=1.0 / qcomp=0.60 / qpmin=0 / qpmax=69 / qpstep=4 / cplxblur=20.0 / qblur=0.5 / ip_ratio=1.40 / aq=3:1.00
Default : Да
Forced : Нет
Аудио
Идентификатор : 2
Формат : AAC
Формат/Информация : Advanced Audio Codec
Профиль формата : HE-AAC / LC
Идентификатор кодека : A_AAC
Продолжительность : 1 ч. 43 м.
Битрейт : 76,0 Кбит/сек
Каналы : 2 канала
Расположение каналов : Front: L R
Частота : 48,0 КГц / 24,0 КГц
Частота кадров : 23,438 кадра/сек (1024 SPF)
Метод сжатия : С потерями
Задержка видео : 31 мс.
Размер потока : 56,4 Мбайт (8%)
Язык : Russian
Default : Да
Forced : Нет
Текст #1
Идентификатор : 3
Формат : UTF-8
Идентификатор кодека : S_TEXT/UTF8
Идентификатор кодека/Информация : UTF-8 Plain Text
Продолжительность : 1 м. 25 с.
Битрейт : 37 бит/сек
ElementCount : 13
Размер потока : 396 байт (0%)
Заголовок : Forced
Язык : English
Default : Нет
Forced : Нет
Текст #2
Идентификатор : 4
Формат : UTF-8
Идентификатор кодека : S_TEXT/UTF8
Идентификатор кодека/Информация : UTF-8 Plain Text
Продолжительность : 1 ч. 43 м.
Битрейт : 90 бит/сек
ElementCount : 2084
Размер потока : 68,3 Кбайт (0%)
Заголовок : SDH
Язык : English
Default : Нет
Forced : Нет

Скриншоты


[rubit-tracker.ru].t32870.torrent 
Torrent: Registered [ 2019-03-14 05:07 ] · A09DF6BACB6534CA8292CF657581BBB7AFA8C339 Смотреть онлайн

Download .torrent

Download

16 KB

Status: * not checked
Completed: 1 times
Size: 746 MB
Поделиться:
terms.php
Похожие темы
[Profile] [PM]
Display posts:    
Reply to topic

Current time is: 19-May 16:46

All times are UTC ± 0



You cannot post new topics in this forum
You cannot reply to topics in this forum
You cannot edit your posts in this forum
You cannot delete your posts in this forum
You cannot vote in polls in this forum
You cannot attach files in this forum
You can download files in this forum