*** Уважаемые пользователи нашего трекера! Мы рады видеть Вас на нашем обновленном сайте! ***

Навигация по Торрент раздачам

Фильмы

Сериалы

Док.Фильмы

Мультики

Музыка

Игры

Софт

Спорт

Аниме

Книги

Графика

Мобильные

Две королевы / Mary Queen of Scots (2018) BDRemux 1080р | iTunes

Ответить на тему
Статистика раздачи
Размер:  31,38 GB   |    Зарегистрирован:  10 дней   |    Скачан:  0 раз

Полного источника не было: Никогда

 
   
 
 
 
Автор Сообщение

Славик ®

Пол: Мужской

Стаж: 1 год 8 месяцев

Сообщений: 3582



Награды: 4 (Подробнее)

Активный релизер (10 релизов) (Количество: 1) Активный релизер (100 релизов) (Количество: 1) Активный релизер (150 релизов) (Количество: 1)

Создавать темы 14-Мар-2019 04:55

[Цитировать]

Информация о фильме
Название: Две королевы
Оригинальное название: Mary Queen of Scots
Год выхода: 2018
Жанр: Драма, биография, история
Режиссер: Джози Рурк
В ролях: Сирша Ронан, Марго Робби, Джек Лауден, Джо Элвин, Дэвид Теннант, Гай Пирс, Анджела Бэйн, Ричард Кэнт, Гай Риз, Том Петти
О фильме:
1561 год, после смерти молодого мужа Франциска 18-летняя Мария Стюарт возвращается в Шотландию. Она католичка и по крови имеет право претендовать на престол Англии, чем изрядно нервирует нынешнюю протестантскую королеву Елизавету I. Прислушавшись к советникам, королева отправляет к Марии делегацию, в состав которой входит фаворит Елизаветы граф Роберт Дадли, по мнению большинства, — идеальный кандидат в супруги Марии.

Страна: Великобритания, США
Студия: Focus Features, Perfect World Pictures, Working Title Films
Продолжительность: 02:03:55
Перевод: Дублированный | iTunes
Файл
Качество: BDRemux 1080р | iTunes
Видео: AVC/H.264, 1920x1080, ~31,5 Мbps, 23,976 fps
Звук:
Аудио 1: AC3, 6 ch, 384 Kbps - Русский
Аудио 2: AC3, 6 ch, 448 Kbps - Английский
Аудио 3: TrueHD, 8 ch, 3882 Kbps - Английский
Субтитры: Русские (Forced, Full), английские (Full, SDH)

Mediainfo

Общее
Уникальный идентификатор : 94743440734363819810467488248772924874 (0x4746EC46BE5089E451AEAEA5340F95CA)
Полное имя : FilmMary Queen of Scots.2018.Remux.W.mkv
Формат : Matroska
Версия формата : Version 4
Размер файла : 31,4 Гбайт
Продолжительность : 2 ч. 3 м.
Режим общего битрейта : Переменный
Общий поток : 36,3 Мбит/сек
Название фильма : Mary Queen of Scots.2018.Remux.W
Дата кодирования : UTC 2019-03-13 22:01:28
Программа кодирования : mkvmerge v23.0.0 ('The Bride Said No') 64-bit
Библиотека кодирования : libebml v1.3.6 + libmatroska v1.4.9
Видео
Идентификатор : 1
Формат : AVC
Формат/Информация : Advanced Video Codec
Профиль формата : High@L4.1
Настройки формата : CABAC / 4 Ref Frames
Параметр CABAC формата : Да
Параметр RefFrames формата : 4 кадра
Идентификатор кодека : V_MPEG4/ISO/AVC
Продолжительность : 2 ч. 3 м.
Вид битрейта : Переменный
Битрейт : 31,5 Мбит/сек
Максимальный битрейт : 35,0 Мбит/сек
Ширина : 1920 пикселей
Высота : 1080 пикселей
Соотношение сторон : 16:9
Режим частоты кадров : Постоянный
Частота кадров : 23,976 (24000/1001) кадра/сек
Цветовое пространство : YUV
Субдискретизация насыщенности : 4:2:0
Битовая глубина : 8 бит
Тип развёртки : Прогрессивная
Бит/(Пиксели*Кадры) : 0.633
Размер потока : 27,2 Гбайт (87%)
Язык : English
Default : Да
Forced : Нет
Аудио #1
Идентификатор : 2
Формат : AC-3
Формат/Информация : Audio Coding 3
Коммерческое название : Dolby Digital
Идентификатор кодека : A_AC3
Продолжительность : 2 ч. 3 м.
Вид битрейта : Постоянный
Битрейт : 384 Кбит/сек
Каналы : 6 каналов
Channel layout : L R C LFE Ls Rs
Частота : 48,0 КГц
Частота кадров : 31,250 кадров/сек (1536 SPF)
Битовая глубина : 16 бит
Метод сжатия : С потерями
Размер потока : 340 Мбайт (1%)
Язык : Russian
ServiceKind : Complete Main
Default : Да
Forced : Нет
Аудио #2
Идентификатор : 3
Формат : AC-3
Формат/Информация : Audio Coding 3
Коммерческое название : Dolby Digital
Идентификатор кодека : A_AC3
Продолжительность : 2 ч. 3 м.
Вид битрейта : Постоянный
Битрейт : 448 Кбит/сек
Каналы : 6 каналов
Channel layout : L R C LFE Ls Rs
Частота : 48,0 КГц
Частота кадров : 31,250 кадров/сек (1536 SPF)
Битовая глубина : 16 бит
Метод сжатия : С потерями
Размер потока : 397 Мбайт (1%)
Язык : English
ServiceKind : Complete Main
Default : Нет
Forced : Нет
Аудио #3
Идентификатор : 4
Формат : MLP FBA 16-ch
Формат/Информация : Meridian Lossless Packing FBA with 16-channel presentation
Коммерческое название : Dolby TrueHD with Dolby Atmos
Идентификатор кодека : A_TRUEHD
Продолжительность : 2 ч. 3 м.
Вид битрейта : Переменный
Битрейт : 3882 Кбит/сек
Максимальный битрейт : 6444 Кбит/сек
Каналы : 8 каналов
Channel layout : L R C LFE Ls Rs Lb Rb
Частота : 48,0 КГц
Частота кадров : 1200,000 кадров/сек (40 SPF)
Метод сжатия : Без потерь
Размер потока : 3,36 Гбайт (11%)
Язык : English
Default : Нет
Forced : Нет
Number of dynamic objects : 11
Bed channel count : 1 канал
Bed channel configuration : LFE
Текст #1
Идентификатор : 5
Формат : UTF-8
Идентификатор кодека : S_TEXT/UTF8
Идентификатор кодека/Информация : UTF-8 Plain Text
Продолжительность : 1 ч. 56 м.
Битрейт : 2 бит/сек
ElementCount : 22
Размер потока : 1,80 Кбайт (0%)
Заголовок : Forced
Язык : Russian
Default : Да
Forced : Нет
Текст #2
Идентификатор : 6
Формат : UTF-8
Идентификатор кодека : S_TEXT/UTF8
Идентификатор кодека/Информация : UTF-8 Plain Text
Продолжительность : 1 ч. 56 м.
Битрейт : 74 бит/сек
ElementCount : 1165
Размер потока : 63,9 Кбайт (0%)
Заголовок : Full
Язык : Russian
Default : Нет
Forced : Нет
Текст #3
Идентификатор : 7
Формат : UTF-8
Идентификатор кодека : S_TEXT/UTF8
Идентификатор кодека/Информация : UTF-8 Plain Text
Продолжительность : 1 ч. 53 м.
Битрейт : 42 бит/сек
ElementCount : 1127
Размер потока : 35,0 Кбайт (0%)
Заголовок : Full
Язык : English
Default : Нет
Forced : Нет
Текст #4
Идентификатор : 8
Формат : UTF-8
Идентификатор кодека : S_TEXT/UTF8
Идентификатор кодека/Информация : UTF-8 Plain Text
Продолжительность : 1 ч. 54 м.
Битрейт : 46 бит/сек
ElementCount : 1369
Размер потока : 39,1 Кбайт (0%)
Заголовок : SDH
Язык : English
Default : Нет
Forced : Нет
Меню
00:00:00.000 : en:Chapter 01
00:06:10.536 : en:Chapter 02
00:10:38.679 : en:Chapter 03
00:16:07.091 : en:Chapter 04
00:21:06.098 : en:Chapter 05
00:24:59.289 : en:Chapter 06
00:30:21.736 : en:Chapter 07
00:39:02.840 : en:Chapter 08
00:44:19.657 : en:Chapter 09
00:51:17.991 : en:Chapter 10
01:00:02.599 : en:Chapter 11
01:04:18.855 : en:Chapter 12
01:12:19.585 : en:Chapter 13
01:18:06.973 : en:Chapter 14
01:26:53.666 : en:Chapter 15
01:31:19.474 : en:Chapter 16
01:38:32.781 : en:Chapter 17
01:42:30.185 : en:Chapter 18
01:51:35.397 : en:Chapter 19
01:56:53.089 : en:Chapter 20

Скриншоты

[rubit-tracker.ru].t32867.torrent 
Торрент: Зарегистрирован [ 2019-03-14 04:55 ] · BAD29675948D53BFF8BBA94A9FBFCBCE7A4EE742 Смотреть онлайн

Скачать .torrent

Скачать

158 KB

Статус: * не проверено
Скачан: 0 раз
Размер: 31,38 GB
Поделиться:
terms.php
Похожие темы
[Профиль] [ЛС]
Показать сообщения:    
Ответить на тему

Текущее время: 24-Мар 21:58

Часовой пояс: UTC ± 0



Вы не можете начинать темы
Вы не можете отвечать на сообщения
Вы не можете редактировать свои сообщения
Вы не можете удалять свои сообщения
Вы не можете голосовать в опросах
Вы не можете прикреплять файлы к сообщениям
Вы можете скачивать файлы